&title=蒋介石肛门受伤事件
&artist=强鼠翔
&first=0.05
&des=HanyzrEX
&lv_5=14+
&des_5=HanyzrEX
&inote_5=
(202.5){4}1V75[2:1]*>4[2:1],{16},,,,,,,,,,,,2b,
3,4,5,6b,5,4,3,2b,3,4,5,6b,5,4,3,
{8}1,1,1,{16}3,4,{8}3,5/2v5[8:1],{4}1/6,
{8}7,6,5/7,4,6,{16}3V14-7-5[2:1],3,{8}6,8,
7,6,8,8,3/6,4,5/7,6/4,
1b,{16}1b,1b,{8}1b,1b,1b,1b,1b,1b,
3/5,4,{16}4,6,4,5,3,5,4,6,{8}4,4,
6/4,5,3/6,{16}4,4,{8}4,3/5,2/6,5,
{16}3/4,4/3,,,{8}3,{16}3,5,4h[8:1],,,3h[8:1]/5h[8:1],,,{8}4,
3,2,3,{16}5,4,{8}3q3[4:1],3,{4}3,
{2}5bx-8[8:1]*-2[8:1],4b-1[8:1]*-7[8:1],
3b-1[8:1]/4b-7[8:1],6b-8[8:1]/5b-2[8:1],
{32}3b,4,5,6,7,8,1,2,{4}3b,{32}6b,5,4,3,2,1,8,7,{4}6b,
{32}2b,3,4,5,6,7,8,1,{4}2b,{32}7b,6,5,4,3,2,1,8,{4}7b,
2-5[8:1],2/8-4[8:1],8,3/5,
7-4[8:1],7/1-5[8:1],1,6/4,
{8}3/4,2,5/6,7,4/3,1,6/5,8q2[8:5],
{1}4q6[2:1],
{8}2h[4:1],3,{4}3h[4:1],{8}4h[16:3],6,5h[4:1],8,
{4}1,5V37[4:1],{2}5,
{16}1/4,2,3,4,5/2,3,4,5,6/3,4,5,6,7/4,5,6,7,
{1}5/8pp2[2:1]*qq6[2:1],
{16}1,2,3,4,7,6,5,4,2,3,4,5,8,7,6,5,
{8}4/8,1,2/6,7,{4}4/8<5[8:1]*>3[8:1],8,
4,{16}1,2,{8}3,{16}7,6,{8}5,{4}4w8[8:1],
4,6/2,{16}3/5,,,3h[16:3],{8}5,4,
{16}6,3,5,4,6,4,5,4,{8}6/3,{16}7,4,6,3,5,{32}3,2,
{4}1-5[8:1],1-6[8:1]*-4[8:1],1,5,
{12}5/7,5,5,4,4,4,3,3,3,2,2,2,
{16}1,8,7,6,5/1,4/8,3/7,2/6,{24}1,8,7,6,5,4,{4}3-8[8:1]/7v4[8:1],
3/7,1,{16}2,3,4/7,6,{8}5/1pp1[4:1],7/3,
{4}5/1-4[8:1],{8}7,6,{4}5pp7[8:1]*qq3[8:1],5,
{8}1-5[8:1],5-7[16:1]*-3[16:1],{4}1,,5>5[2:1],
{2}5,{4}4,3,
{48}1b,2,3,4,,,,,,,,,{8}2,{48}2b,3,4,5,,,,,,,,,{8}3,{32}3b,4,{16}5,,,{1}1b,
{48}8b,7,6,5,,,,,,,,,{8}7,{48}7b,6,5,4,,,,,,,,,{8}6,{32}6b,5,{16}4,,,{4}8b,
{8},,,,5,4,
{4}5/3,{8}3,3,{4}4/6,{8}5,3,
{4}4/6,6,6,6,
{16}4,5,4,5,4,5,4,5,{4}3/6,4/5-1[8:1],
5/4,{16}2,3,{8}4/6,{12}3,4,2,6,5,7,
{4}1-5[8:1],{8}6,7,8-3[8:1],3V51[4:1],8,2,
{4}1-6[8:1]*-4[8:1],A1,{24}2,3,4,7,6,5,{4}1p4[8:1],
1/8<5[8:1],8,{8}2/4,{16}3,4,{8}2-5[8:1],1-7[8:1],
2-6[8:1],1-5[8:1],2-4[8:1],1,{4}2-7[8:1],{8}2,6,
5-8[8:1],4,5,4,3,2,{4}1w5[8:1],
1,3,{8}2,2,7,7,
{16}1,8,1,8,1,8,1,8,{8}2/7,8/1,{24}1v4[8:1]/8v5[8:1],2/7,3/6,4/5,,,{4}1/8qq3[2:1],
{8},,,,1-6[8:1],1,
5-2[8:1],5,7,7,{16}7/3,4/8,5/1,2/6,{8}3/7-4[8:1],7,
3-8[8:1],3,5,5,{16}5/1,2/6,3/7,4/8,{4}5/1,
{16}7,5,7,5,8,6,8,6,1,8,7,6,8,7,6,5,
7,6,5,4,6,5,4,3,{8}2/5,{16}3,4,{8}2-6[8:1],2,
7-4[8:1],7,1-6[8:1],1,{4}1/7-3[8:1],7-1[8:1],
{16}7/4,5,{8}6,6,5/7,4/6,3,2,1,
{16}1,2,3,4,5/1,2,3,4,5/1,2,3,4,5/1,2,3,4,
1,4,2,5,3,6,4,7,{4}5w1[8:1],5bx,
{8}2bx,3bx,{4}4bx,{8},,,,6bx,
5bx,4bx,3bx,2bx,1bx,8bx,7bx,
{24}3bx,3bx,,,,,2bx,2bx,,,,,1bx,1bx,,,,,6,5,,,,,{8}2-8[8:1],
2,3-7[8:1],3,4-6[8:1],4,{4}1-3[8:1],
{8}5,6,5>3[1:1],4,{4}5,{8}6,6,
{16}E8/B8/B7,,,B1,,,{8}E2,,,3,5,
{4}1-3[16:1],8-4[8:1],7-5[16:1],7,
{48}1b/8b,2b/7b,3b/6b,4b/5b,,,,,,,,,8b/2b,7b/3b,6b/4b,5b,,,,,,,,,1b/7bw3[16:1],2b/6b,3b/5b,4b,{4},{16},,{24},{4}5/1h[4:1],
{32}5,2/6,3/7,4/8,{8}1/5,1,1,{32}1/5,8/4,7/3,6/2,{8}5/1,
{4}5/1h[4:1],{32}5,2/6,3/7,4/8,{8}1/5,1,1,{32}1/5,8/4,7/3,6/2,{8}5/1,
{4}5/1h[4:1],{32}5,2/6,3/7,4/8,{8}1/5,1,1,{32}1/5,8/4,7/3,6/2,{8}5/1,
{4}5/1h[4:1],{32}5,2/6,3/7,4/8,{8}1/5,1,1,{32}1/5,8/4,7/3,6/2,{8}5/1,
{32}1/5,2/6,3/7,4/8,{8}5/1,{32}1/5,8/4,7/3,6/2,{8}5/1,{32}1/5,2/6,3/7,4/8,{8}5/1,{32}1/5,8/4,7/3,6/2,{8}5/1,
{32}1,2,3,4,5/1,8,7,6,{4}5/1h[4:1],{32},2,3,4,5/1,8,7,6,{4}5/1h[4:1],
{8}6,{16}3-5[8:1],3,{8}7-1[8:1],3-7[8:1],7bx-4[8:1],3bx,{4}5bx,
{48}1b/8b,2b/7b,3b/6b,4b/5b,,,,,,,,,1b/8b,2b/7b,3b/6b,4b/5b,,,,,,,,,1b/8b-4[8:1],2b/7b,3b/6b,4b/5b,,,,,,,,,,,,,,,{8}2b,
{32}2b,3b/1b,4b/8b,5b/7b,{8}6b,,7b,{32}7b,6b/8b,5b/1b,4b/2b,{8}3b,,8b/1b,
{48}8b/1bp8[4:3],2b/7b,3b/6b,4b/5bp4[16:11],
E
