&title=In the garden
&artist=Primary
&first=0.06
&des=fpsaki
&lv_5=13
&lv_6=13+
&inote_5=(224)
{4},,,,{4}6h[4:5],4h[8:1],,,,,3h[4:5],5h[8:1],,,,,
8h[4:5],2h[8:1],,,,,1s5[4:3],,,,,,
{8}7h[4:5],,5,5p1[2:1],,,,,,,,,
2h[4:5],,4,4pp6[2:1],,,,,,,,,
5h[4:5],,7,7>3[2:1],,,,,,,,,
{24}6,7,8w4[4:3],,,,{4},{1},
{8}6h[4:1]/5,,3,3h[4:1],,4,4h[4:1],,
2,4,3,4,2h[4:1],,8,8h[4:1],
,1,1,6,6,5,5,7,
8/3h[4:1],,6,6h[4:1],,5,5h[4:1],,
7,5,6,5,7h[4:1],,2,2h[4:1],,4pp6[8:3],4q8[4:1],,,,,,
3h[4:1]/5,,7,7h[4:1],,2,2h[4:1],,
8,1,7,8,1/6h[4:1],,4,4h[4:1],
,8,8,1,1,4,4,3,2/6h[4:1],,8,8h[4:1],,7,7h[4:1],,
5,6,4,5,6/3h[4:1],,2,2h[4:1],
,1,1h[4:1],,4,2,7,4,
{4}5b>8[4:5]/6b,,,5,4,,6h[2:1],,
{8}5,5,7h[2:1],,1,,2,,3h[8:3]/8,,,5h[8:3],,,4,,
5,,6,,5h[4:1]/7h[4:1],,,5pp4[8:5],
,,2,,2,,,,35,,3,4h[8:5],,,1,,
8h[4:1],,7,,7h[4:1]/1,,5,5,6,2,3/4<8[2:1],,1h[4:1],,,,
2>6[2:1],,7h[4:1],,,,8V63[2:1],,4h[4:1],,,,5<4[2:1],,,,
,,7,,7-3[8:1],,,,18,,6,4h[8:3],,3,3,,
4,,6,6,5h[4:1],,7,7,,5,6,,35,,24,,
1V36[2:1]/3,,7h[4:1],,,,8<3[2:1],,
1h[4:1],,,,2qq7[4:3],,,,,,5,,5,,6,6,
35,,7,1h[8:5],,,5,,4h[4:1],,3,,3h[4:1]/5,,4,4,
,1,17,,56,,54,,3<6[4:1]/4,,7h[4:1],,,,8p4[4:1],,
1h[4:1],,,,2/5h[4:1],,4,5,4,6,2,2,5,3,8h[4:1],,
{24}2,3,4,{8}5h[8:3],,,,,4h[2:1]/6,,
7,,7,,5h[2:1]/3,,1,,1,,4b/8b,,2b/6b,,3,3,
{24}7,6,5,4h[8:3],,,{4},,2/5h[4:1],
{8}3,6,5,8,1/7h[4:1],,4,5,2,7,4-1[4:1]/5-8[4:1],,,,,,
2h[4:1]/4,,1,3>8[8:1],,7,6-4[8:1],,
3-6[8:1],,7qq1[2:1],,4h[8:3],,,,
,,4,4,5,3,7,2,
1/8h[4:1],,5,8<5[8:1],,4,3q7[4:1],,
7p1[4:1],,1<2[2:1],,5h[8:3],,,,
,,3/5h[4:1],,4,5,36,,
7h[4:1]/5,,8,7<4[8:1],,2,3-7[8:1],,
8>3[8:1],,4qq6[2:1],,7h[8:3],,,,
,,7,7,4,6,2,8,
1h[4:1]/7,,5,1>4[8:1],,7,8q5[4:1],,
5<1[4:1],,1>1[2:1],,4h[8:3],,,,
,,3,3,4,5,6h[4:1],,
5-1[8:1],,75,6V47[4:1],,8,8>5[8:3],,
5,,7,,1p5[8:1],,4,4v3[16:3],
,,6,6,2,4,1h[4:1],,
8-4[8:1],,68,5<1[4:1],,3,2q6[4:1],,
6q2[4:1],,2>1[2:1],,7h[8:3],,,,,,
6,6,5,4,3h[4:1],,
4-8[8:1],,24,3V52[4:1],,1,1<4[8:3],,
4,,2,,8q4[8:1],,5,5v6[16:3],
,,3,3,7,4,8h[4:1],,
1-6[8:1],,12,3-8[8:1],,5,5<1[4:1],,
1>5[4:1],,5pp4[2:1],,2pp4[4:1],,,,
,,1h[4:1]/6h[4:1],,,2,3,4,5b<5[1:1],,,,,,,,
,,,,3h[4:1],,5,3,7-5[8:1],,1-3[8:1],,8-4[8:1],,4,,
2h[4:1],,4,2,6-4[8:1],,3-7[8:1],,8-2[8:1],,2,,3h[4:1],,5,4,
6h[4:1],,8,8,6,2,8,4,
7h[4:1],,5,6,3-7[8:1],,5-2[8:1],,
1<6[8:1],,7,,8h[4:1],,4,6,2-5[8:1],,7-3[8:1],,4>1[8:1],,5,,
6h[4:1],,1,7,3-8[8:1],,7-3[8:1],,
1-5[8:1],,8,,7h[4:1],,5,6,4V63[4:1],5,3,,1,1h[4:1],5,5,
{32}26,37,4qq5[8:19]/8,1<1[8:37]/5,,,,,{1},,,,,{4},,,
{8}6h[4:5],,2,2v5[2:1],,,,,
,,,,3h[4:5],,7,7v5[2:1],,,,,,,,,
8h[4:5],,4,4v5[2:1],,,,,,,,,{24}7,6,{1}5s1[1:2],,{4},,
E
&inote_6=(224)
{1}
,
{4}
4h[4:3]/5pp5[8:8],,,,
,,3h[4:3],,,,,,
4pp4[8:8]/2h[4:3],,,,
,,1h[4:3],,,8,,,
7h[4:3]/5qq5[8:8],,,,
,,6h[4:3],,,,,,
4qq4[8:8]/5h[4:3],,,,
{24}
,,,,,,,,,,,,5,6qq3[8:8],,,,,,,,,,,
{4}
,,,,
{8}
2,2,4,3,3,5,4-6[8:1],,
7-1[8:1],,3h[4:1],,
7,7,5,6,6,4,5-3[8:1],,
2-8[8:1],,6h[4:1],,
2,2,4,3,3,5,4-6[8:1],,
8-2[8:1],,3h[4:1],,
7,7,5,6,6,4,5-3[8:1],5,
1-7[8:1],1,6,6,
2-4[8:1],7,2,8-2[8:1],5,8,3-7[8:1],,6-4[8:1],,2,,
1-3[8:1],6,1,7-1[8:1],4,7,2-6[8:1],,5-3[8:1],,1,,
2-4[8:1],7,2,8-2[8:1],5,8,3-7[8:1],,6-4[8:1],,2,,
3-1[8:1],7,3,6-4[8:1],8,6,8^3[8:1],8,5-1[8:1],5,4-8[8:1],4,
6b>7[4:5],,,,,,,,
,,,,3h[4:4],,,,,,4,,5,,6,,
6h[4:4],,5,5,,4,4,,3,,2,,2q5[4:4],,,,
,,5,,6,,7,,7p4[4:4],,,3,,2,2,,
1,,8,,8>5[8:4],,,6,,7,7,,
8,,1,,1<4[8:3],,2,2,,8,8>5[8:3],,7,7,,1,1q7[4:2],,,,
,,8>6[8:4],,1h[8:2],,,,
1-5[8:1],,,7,,8,8/4-2[8:1],,7,,6,,
5/1-5[8:1],,,7,,8,8/4-2[8:1],,7,,6,,
1>6[8:4]/5,,7,7,,8,8>5[8:4],,3,3,,1,
1<2[8:5],,,,,,1,,8,,7,,
1/6-8[8:1],,,3,,4,4/1-5[8:1],,3,,2,,
1/6-8[8:1],,,3,,4,4/1-5[8:1],,3,,2,,
1<4[8:3]/5,,6,6,,8,
8<3[8:3],,2,2,,1,
1pp8[8:4],,,,,,
5pp4[8:4],,,,,,
{4}
3bqq8[8:4],5,6,7bqq4[8:4],1,2,
3bqq5[8:4],5,6,7bpp4[8:4],4,3,
{8}
1b,1,4,4,3,3,8b,8,5,5,6,6,
5,5,46,46,37,37,
{4}
1-3[8:1]*-4[8:1],1-7[8:1]*-6[8:1],1,
{8}
2b-4[8:1],1,2,7b-1[8:1],5,7,3b-6[8:1],,7b-4[8:1],,
2b-5[8:1]*-7[8:1],,2b,,,48,48,,
3-8[8:1],,7-4[8:1],,2,,
1-3[8:1],5,1,7-1[8:1],5,7,
5-2[8:1],,7^4[8:1],,1v4[8:1]*v6[8:1],,1,,
,37,37,,2b-5[8:1],,8b-4[8:1],,1b,,
7b-5[8:1],8,7,2b-8[8:1],4,2,6b-3[8:1],,1b-5[8:1],,
7b-4[8:1]*-2[8:1],,7b,,,51,51,,
2^5[8:1],,8-4[8:1],,3,,
2-4[8:1],6,2,7-1[8:1],5,7,
5-1[8:1],,7^4[8:1],,8v3[8:1]*v5[8:1],,8,,
,71,71,,2b-4[8:1],,1b-5[8:1],,8b,,
7b-5[8:1],8,7,1b-7[8:1],4,1,
6b-2[8:1],,3b-7[8:1],,5b-8[8:1]*-2[8:1],,5b,,
,37,37,,2-5[8:1],,7-3[8:1],,1,,
6-4[8:1],2,6,1-7[8:1],3,1,
4-7[8:1],,2^5[8:1],,8w4[8:1],,8,,,
62,62,,7b-5[8:1],,8b-4[8:1],,1b,,
2b-4[8:1],1,2,8b-2[8:1],5,8,
3b-7[8:1],,6b-2[8:1],,4b-1[8:1]*-7[8:1],,4b,,
,62,62,,8-4[8:1],,2-6[8:1],,1,,
7-4[8:1],2,7,1-6[8:1],3,1,
4b-8[8:1],,2b^5[8:1],,1bw5b[8:1],,1b,,,
37,37,,
{16}
6,5,4,3,2,1,8,7,
{4}
16,
{16}
1,2,3,4,5x,6,7,8,1hx[4:1],,,,7b,6,5,4,3x,2,1,8,7hx[4:1],,,,
2,3,4,5,6x,7,8,1,2hx[4:1],,,,6b,5,4,3,2x,1,8,7,6hx[4:1],,,,
3,4,5,6,7x,8,1,2,3hx[4:1],,,,5b,4,3,2,1x,8,7,6,5hx[4:1],,,,
2,3,4,5,6x,7,8,1,2x,3,4,5,8hb[8:1],,5h[8:1],,7h[8:1],,4h[8:1],,6h[8:1],,3h[8:1],,
5,4,3x,2,1x,8,7x,6,5hx[4:1],,,,2b,3,4x,5,6x,7,8x,1,2hx[4:1],,,,
6,5,4x,3,2x,1,8x,7,6hx[4:1],,,,3b,4,5x,6,7x,8,1x,2,3hx[4:1],,,,
7,6,5x,4,3x,2,1x,8,7hx[4:1],,,,4b,5,6x,7,8x,1,2x,3,4hx[4:1],,,,
8,7,6x,5,4x,3,2x,1,8x,7,6x,5,1,,1,,26,,26,,37,,37,,
{4}
4qq6[8:10]/8,,,,,,
7h[4:3],,,,,,
8qq2[8:10],,,,,,
3h[4:3],,,4h[4:3],,,
5qq6[4:5],,,,,,7h[4:3],,,,,,
5pp4[4:5],,,,,,
{24}
B3,B4,,,
