&title=stεganography
&artist=ああ…翡翠茶漬け…
&first=0.15
&des=&des_6=Lacomxio
&lv_6=15
&inote_6=(160){4},4>7[2:3],5,4h[4:1],
,3h[4:1],,2,
,5/6h[1:1],4,3,
2,1h[2:1],{12},,,3,,4,
,5,,{4}6/2<7[4:1],{12}4h[4:1],,,,,5,
,6,,{4}3/7>3[4:1],{2}5h[4:1],
{4}4/5,3/4,5,6,
{2}7>4[4:3],{4}4,5,
6,{32}6,5h[32:23],{4},,{16},,,{4}4,
{32}6,3,,,,,,,{4}2,1,
8,{12}7/1,,6,,5/4,,3,,2/8,
,1,{96},,,,,,,,{32}7,6xh[32:7],,,,,,,,,,,,,,,2,3xh[32:7],,,,,,,,,,,,,,,{4}4h[4:1]/5h[4:1],
,3,
7,{12}1,2,3,7,6,5,{48}2,,,4,,,{16}3,5,
4,6,5,7,{12}8,1,2,6,3,3,4,1,1,
7,5,5,{48}4,,,5,,,{16}6,7,3,4,5,6,2,3,4,5,
1,2,3,4,{4}5-1[5.625##0.1875]/1b-7-2-6-3-5b[5.25##0.375],,,,,,,,,,,,,,,,(260)1b/8b,
{8}1,1-5[8:1],,7,
{4}7<4[4:1],{8}4,3,2,1,8,7,
6,5,{16}3,4,3,4,{8}3,2-7[8:1],8,{16}7x,6x,
{8}5x,5h[4:1],,1,2,2,{4}3/4,
5/6,{8}3xh,4,5,5h[8:1],2xh,3,
{4}5h[8:1],{16}B5`1xh,B6,B7,B8,B1,B2,B3,B4,{8}8xh,7,
5,5,7xh,6,4,3h[4:1],,1h[4:1],
2,3,{12}5,4,6,4,5,3,6,5,7,
3,4,2,1h[8:1],{24},{8}8,7,6h[4:1],,5,
2h[4:1],4<1[8:3],,2,3,4,5xh[8:1],2,
5xh[8:1],8,{16}4,3,2,1,{8}8-4[8:1],8h[8:1],,2x,
3/5,6,B1/E2,5,B2/E3,6,{16}4-1[8:1],5,{8}4,
{4}5,{8}8h[8:1],1,2,3h[4:1],,4,
7h[4:1],5>8[8:3],,7,6,5,4xh[8:1],7,
4xh[8:1],1,{16}5,6,7,8,{8}1-5[8:1],1h[8:1],,7x,
{16}6x,5x,4x,3x,,,,,4x,5x,4x,5x,4x,5x,4x,5x,
4x,5x,4x,5x,{8}3h[4:1],4,5,6h[4:1],,5,
{4}2h[4:1],{8}1,8,7,6,4xh[8:1],2,
4xh[8:1],5,{16}4,3,{8}2,1/8,7h[8:1],,2h[4:1],
,1-5[8:1],,2,3,4,E7/B6,E1/B1,
7x,E3/B3,5h[8:1],4,3,2h[4:1],,1,
6h[4:1],8>5[8:3],,6,7,8,1xh[8:1],6,
1xh[8:1],4,{16}8,7,6,5,{8}4-8[8:1],4h[8:1],,6x,
7/1,2,B5/E6,1,B6/E7,2,{16}1-4[8:1],8,{8}1,
{4}8,{8}6h[4:1],5,4,3h[4:1],,4,
{4}7h[4:1],{8}8,1,2,3,5xh[8:1],7,
5xh[8:1],4,{16}5,6,{8}7,8/1,2h[8:1],,7h[4:1],
,8-4[8:1],,7,6,5,E3/B3,E1/B8,
2x,E7/B6,3,3,3,3,5,5,
5,5,{16}2,6,2,6,2,6,2,6,3x,7x,3x,7x,
3x,7x,3x,7x,{12}4bx,5x,6x,7x,8x,1x,6b,5x,4,
3,2,1,8h[4:1],{48},,,,,,,,{16}3x,4x,3x,4x,3x,4x,3x,4x,
3x,4x,{8}3x,{16}1/8,,,8,,,{8}7,{4}B6/E6/8-3[8:1],
{8}4,5h[8:1],,5/3,,4,4/6,7-3[8:1],
3,7/3,{16}2,,,1,,,{8}8,{4}6/5,
{16}3,4,3,4,{8}3,1/2,,7,6/5,4,
,2,{16}8/1,,,1,,,{8}2,{4}B3/E4/1-6[8:1],
{8}5,4h[8:1],,4/6,,5,5/3,2-6[8:1],
6,2/6,{16}7,,,8,,,{8}1,{4}3/4,
{16}6,5,6,5,{8}6,8/7,,2,3/4,5,
,1,{16}8/7,,,7,,,{8}6,{4}E6/B5/1-6[8:1],
{8}5,5h[8:1],,5/7,,8,8/6,6-2[8:1],
1,6/2,{16}3,,,1,,,{8}7,{4}5/4,
{16}3,4,3,4,{8}3,8/1,,6,5/4,3,
,8,{16}1/2,,,2,,,{8}3,{4}E4/B4/8-3[8:1],
{8}4,4h[8:1],,4/2,,1,1/3,3-7[8:1],
8,3/7,{16}6,,,8,,,{8}2,{4}4/5,
{16}6,5,6,5,{8}6,1/8,,3h[4:1],4,5,
6,7,1/8,2,{24}2,3,4,5bs1[8:1],,,,,,,,,{4}8x,
{8}2,6,5h[8:1],4x,4/5,6,
7,8,{4}1h[4:1],2b-5b[8:1],1-5[8:1],
{16}1/6,7,8,1,2,3,4,5,{8}3b,3h[8:1],{24}2,1,8,7,6,5,
3,2,1,8,7,6,{4}5bh[4:1],{8}4,5/4z8[8:1],,,{4}1x,
2/7,3/6,{8}4,4,
5,5,{4}3-8[8:1],3/4,6-1[8:1],
6/5,{16}8x/E2/B2,B3,{8}B4,{16}1x/E8/B7,B6,{8}B5,2,3,
{4}4/5xh[4:1],1bh[4:1],{2}5<1[4:1],
{8}2,3,4,4,2,2,{16}5,4,{8}3,
{16}8,7,{8}6,{4}6/2h[8:3],{16},,6<2[4:1],1/5,{4}8/4h[4:1],
{8},,5,5,3,3h[8:3],{16}2,1,8,7,
6,5,4,3,{8}2b,2-5[8:1],,6b,{4}6-2[8:1],
{8}4b,4-8[8:1],,7b,7-4[8:1],1,2,3h[8:1],
{16}5,6,7,8,1,2,3,4,5,4,3,2,1,8,7,6,
{24}5b/1b,4/8,3/7,2x<3[0.2354##2.0696],,,(250){4},,,,(245),
,,,(240)3>4[0.25##2.0322],
,,,(235),
,,,(230)4>5[0.2609##2.122],
,,,(225),
,,,(220)5>6[0.2727##1.9345],
,,,(215),
,,,(210)5,
5,{16}6/4,,,6/4,
,,{8}5/3>1[8:1],{4}4,4,{16}5/1,,,1/5,
,,{8}6/8>2[8:1],{4}4,4,{16}3/8,,,3/8,
,,{8}4/1<7[8:1],{4}5,5,{16}6/2,,,6/2,
,,{8}6/2,{16}1,2,3,4,7,6,5,4,2,3,4,5,
8,7,6,5,3,2,1,8,3,4,5,6,1,2,3,4,
8,7,6,5,{8}4b,4,2,2,8b,8,
6,6,{12}1b,1,1,{24}8b/C,7,6,5,,,1b/C,2,3,4,{96},,,,,,,,{32}B4,
B3,B2,B1,B8,B7,B6,B5,{4}1x>5[4:1],{16},,,,1,8,7,6,
{8}5,4h[8:1]/3h[8:1],,5h[8:1]/4h[8:1],{16},,5,4,{8}5,6h[8:1]/5h,
{16},6h[8:1]/7h,,,{4}7/8-4[4:1],{16},,,,8,7,6,5,
{8}4,3h[8:1]/4h[8:1],,5h[8:1]/4h[8:1],{16},,5,6,7,8,{8}2h[8:1]/1h,
{16},2h[8:1]/3h,,,{4}3/4>1[4:1],{16},,,,4,5,6,7,
{8}8,1h[8:1]/2h[8:1],,8h[8:1]/1h[8:1],{16},,8,1,{8}8,7h[8:1]/8h,
{16},7h[8:1]/6h,,,{4}6/5-1[4:1],{16},,,,5,6,7,8,
{8}1,2,{16}5,4,5,4,5,4,5,4,5x,6,7,8,
4x,3,2,1,{8}8v3[8:1],8,1,2h[8:1],{16}3x,4,5,6,
{8}3,3,{16}5,4,{8}6,{16}3,4,{8}2,{16}6,5,{8}7,
{16}4,5,{8}3,2>5[8:1],2,5,6,7>2[8:1],7,
4,3,{16}4,6,{8}5,{16}8,2,{8}1,3-6[8:1],3,
7-2[8:1],7,5,4,{16}3,4,{8}3,{16}6,5,{8}6,
{16}4,5,{8}4,{16}6,4,{8}5,{16}3,5,{8}4,{16}6,4,{8}6,
{16}3,5,{8}3,1>4[8:1],1,4,5,6<1[8:1],6,
3,2,{16}3,4,3,4,3,4,3,4,3b,4,5,6,
7,8,1,2,5,4,{8}5,{16}3,4,{8}3,{16}6,5,{8}6,
{16}4,5,{8}4,{16}3,4,{8}2,{16}5,4,{8}6,{16}4,5,{8}3,
{16}6,5,{8}7,2-5[8:1],2,8-4[8:1],8,1-5[8:1],1,
7-4[8:1],7,{4}2q6[8:1],1-5[8:1],8<5[8:1],
{16},,,,4,5,{8}4,{16}6,5,{8}6,{16}3,4,{8}3,
{16}5,4,{8}5,{16}6,5,{8}7,{16}4,5,{8}3,{16}5,4,{8}6,
{16}3,4,{8}2,7-4[8:1],7,1-5[8:1],1,8-4[8:1],8,
2,2,{16}3,4,3,4,3,4,3,4,3b,4,5,6,
7,8,1,2,6,4,6,4,6,3,6,3,6,2,6,2,
6,1,6,1,5x,4,3,2,1/5,8,7,6,5/4,3,2,1,
{4}8/7b,{16}2,7,2,7,2,6,2,6,2,5,2,5,
2,4,2,4,3x,4,5,6,7/3,8,1,2,3/4,5,6,7,
{4}8/1b,{16}2,8,2,8,2,7,2,7,2,6,2,6,
2,5,2,5,1x,8,7,6,5/1,4,3,2,1/8,7,6,5,
{4}4/3b,{16}5,3,5,3,5,2,5,2,5,1,5,1,
5,8,5,8,4x,3,2,1,8/4,7,6,5,4/3,2,1,8,
{4}7/6b,{16}5b-2[16:1],,,1b-5[16:1],,,{8}6b-1b[16:1],{16},6b,,,2,
4,3,5,4,6,5,7,8,1,2,3,4,5,6,7,
{8}8,8,{16}1b-4[16:1],,,6b-3[16:1],,,{8}2b-7b[16:1],{16},5b-8[16:1],,,1,
2,3,4,8,7,6,5,4,5,3,6,2,7,1,8,
{8}3,6,{16}2,4,2,4,3,5,3,5,4,6,4,6,
{8}5/7,6/8,{16}2,8,2,8,1,7,1,7,8,6,8,6,
{8}7/5,6/4,{16}3,5,3,5,2,6,2,6,1,7,1,7,
8,8,8,8,{48}1b,2,3,4,,,{16}8,8,{48}7b,6,5,4,,,{16}8,8,{48}1b,2,3,4,,,,,,,,,{16}5,
5,4,4,{4}6/3V16[16:5],{8}5/3,4h[4:1],,,8/4<3[4:9],
,,2,{4}3,{8}1,2,
{16},,2,3,{8}4,5,{4}5,{8}6,6,
,7,7,7,{4}8h[8:1],{16}1,2,3,4,
5,6,7,8,{4}1/2V47[16:5],{8}2/4,5h[4:1],,,{4}1/5<3[1:1],
{8}3,3,,4,{4}4,
5qq1[2:1],5,{8},6,{4}6-1[4:1],
{24}1,2,3,4,,,2,3,4,5,,,3,4,5,6,,,{4}5-8[8:1]/4-1[8:1],
,2/7V52[16:5],{8}1/7,8h[4:1],,,4/8>7[4:9],
,,6,{4}7,{8}5,6,
{16},,6,7,{8}8,1,{4}1,{8}2,2,
,3,3,3,{4}4h[8:1],{16}5,6,7,8,
1,2,3,4,{4}6/5V38[16:5],{8}5/3,2h[4:1],,,{4}6/2<4[1:1],
{8}4,4,,3,{4}3,
2pp6[2:1],2,{8}1,8,,7,
5,4,{16}3,2,1,8,7,6,5,4,{32}3,2,1,8,7,6,{16}5,
{32}A4/A8,D4/D8,A3/A7,D3/D7,A2/A6,D2/D6,A1/A5,D1/D5,4xh[#0.8982239]/8xh[#0.8982239],(200),{4},,,{16},{8}5,
{16},,2,3,4,5,{8}6,6h[8:1],{16}5,6,
4,3,2,1,{4}8,{8}5,{24}7,6,5,{8}4,3,
{16}4,2,5,3,6h[16:3],,,7h[16:3],,,{8}3h[8:3],{16},,,,8,
1,2,3,(190){4}4/5,{8}5,7/4,{16},,,,5/2,
3,4,5,{4}6h[4:1],5h[4:1],{16}4,3,2,1,
8,7,6,5,(180){4}1h[8:3],{16},,,2h[16:5],,,,,{4}3h[4:1],
{8}4,5,6,7,{4}4/5h[8:1],
3,2b,6>3[6:1],{12}1,,2,
,3,,{4}4h[2:1],{12},,,3,,2,
,1,,8,{24},,E5,B4,B3,E3,E1,B8,B7,E7,{16}2,3,4,5,
{4}6h[4:1],5,4,(165){16}3,5,4,6,
5,7,5,8,(160){4}1h[#1.5],{8},,,3,
{16},2,,,(155){4}8h[#1.548386],,6,
,(150)7h[2:1],,6h[#0.8000031],
,(145)5h[2:1],,4h[#1.256149],
,(140),5b<4[4:13]*<4b[5.7857##0.2143],Ch[8:25],
{1},,,{4},(270){8}4,
5,6,3h[4:1],,4,
{4}3,{8}6,6,5,5,4,4,
3,3,{16}2,1,{8}8,,6h[4:1],,7h,
,1h[8:3],,2,3,4,5h[8:1],4h[8:1],
{4}5h,{8}5,4,3,6h[4:1],,5,
{4}6,{8}3,3,4,4,5,5,
6,6,{16}7,8,{8}1,,3h[4:1],,2h,
,8h[8:3],,7,6,5,4h[8:1],5h[8:1],
{4}4h,{8}5/4,5,3h[4:1]/B8/B7,,,5,
{4}5/B1/B2,{8}3,4,5/B2/B3,6,4,4,
3/B8/E8,2,{16}B7,B6,{8}B5,B1/B2,5,5,5h[8:1],
{4}B2/B3,6/4,{8}3/E8/B7,3,4,5,
{4}6/E2/B2,{8}8/1,8,2h[4:1]/B5/B6,,,8,
{4}8/B4/B3,{8}2,1,8/B3/B2,7,1,1,
2/B5/E6,3,{16}B6,B7,{8}B8,B4/B3,8,8,8h[16:9],
{4}B3/B2,1h[16:3],{16}1,8,1,8,1,8,1,8,
1,8,1,8,2b/7b,6/3,{8}5/4,{4}3x>8[8:1],{24}7b,6,5,4h[8:1],,,{4}7xV13[8:1],
{24}4b,5,6,7,,,{4}3x/4x,{16}1b/2b,8/3,7/4,5/6,
{4}C,2h[4:1]/8<3[1:1],{8},1h[4:1],,,8h[4:1],
,,7h[4:1],{16},,,,1,8,1,8,
1,8,1,8,{24}1b,2,3,4/6,,,,,,{8}1/2,{24}8b,7,6,5/3,,,{8}4,
5,3,3p6[8:1],,4q8[4:1],{16},,,,1,
2,3,4,{4}5/1>6[8:9],{8},3h[4:1],,,2h[4:1],
,,1h[4:1],{16},,,,8,1,2,3,
4,5,6,7,{8}8,8-4[8:1],,2,{4}2<6[16:3],
2h[8:1],3-8[16:3],3,7-4[16:3],
{16}7/8,1,2,3,{4}4x<2[8:7],{8},4h[4:1],,,{4}5,
5-2[16:3],5,1-6[16:3],
1,5/4,2h[4:1],6h[4:1],
8h[4:1],2h[4:1],3,4,
5,5/6,{8}2,3/4,,1,
8,8,{16}1,2,3,4,7,6,5,4,2,3,4,5,
6,7,8,1,{4}7/2-5[8:1],{8}2,1,{4}8<5[16:3],
8/5,{16}4/2bh[8:3],3,,1,8,7,6,5,{4}4/8-3[8:1],
4h[4:1],{16}5,6,7,8,1,2,3,4,{4}5/6-2[8:1],
6h[4:1],{16}3,4,5,6,7,8,1,2,{4}3-7[8:1]/7b-3b[8:1],
7/3b,8>3[16:3],8/5,{16}4/6bh[4:1],5,,7,
8,1,2,3,{4}4/1-6[8:1],5h[4:1],{16}4,3,2,1,
4/8,3/7,2/6,1/5,{4}8-3[16:1]/4b-7b[16:1],{24},,,,,,4b/8b,3/7,2/6,1h[8:1]/5h[4:1],,,,,,,,,{4}2-6[8:1],
1-5[8:1],8-4[8:1],
7-3[8:1],5h[4:3],{8},3,{4}2<6[8:1],
2,3-8[16:3],3,4-7[16:3],
4,{8}8,1,2,3/7,,5,
4,4,{16}7/8,6,5,4,3,2,{8}1,{16}4,8,4,8,
4,8,4,8,{12}3h,7,1h,5,3h,1,5h,7,3h,
5,7h,3,{48}1h[4:1],,,8,,,{16}7,6,5,4,3,2,{8}1/4,4,
3/7,3,2/6,6,5/1,5,8x/4x,3x/7x,
2x/6x,1x/5x,{4}8b>4[4:3]/4b<8b[4:3],,,,{32}A4/A8,
D4/D8,A3/A7,D3/D7,A2/A6,D2/D6,A1/A5,D1/D5,{4}A8/A4,{16}1b,5x,1b,5x,
1b,5x,1b,5x,(300){4}1b-5[16:5],1w5b[16:1],1b,
{8},,,,,,,,,7-4[16:1]/1b-4b[16:1],
{4}1/7b,{2}3x/5x,
{8},,,,,,,,,5/4b,
{4}4-1[8:1]/5b-8b[8:1],{1},{4},{16}1,
8,1,8,
1,8,1,8-4b[8:1],{4}1-5b[16:1],{8},1x/8x,,,,,,,,,2,
7,
3,6,{4}4h[4:1]/5h[4:1],,4h[4:1]/3h[4:1],
,3h[4:1]/2h[4:1],,2h[4:1]/1h[4:1],
,8h[4:1]/1h[4:1],,8h[4:1]/7h[4:1],
,7h[4:1]/6h[4:1],,6h[4:1]/5h[4:1],
,6/2,7/3,8/4,
1/5,6/2,7/3,8/4,
1/5,{16}8/4,3,2,1,8/4,7,6,5,{8}4/8x,3/7x,
2/6x,1/5x,{4}4bpp7b[2:1]/8bpp3b[2:1],{8},,,,,,4/3h[4:1],
5,6,7h[4:1],,8-3[8:1],
7/8,,,4,4,3,3,4h[4:1],
{16},,5,6,7,8,1,2,,,{8}4/3,,8/7,
,1h[4:1],{16},,2,3,4,5,{8}6,7,7,
8,8,1/2h[4:1],8,7,6h[4:1],,5-2[8:1],
6/5,,,1,1,2,2,1h[4:1],
{16},,8,7,6,5,4,3,,,{8}1/2,,5/6,
,4h[4:1],{16},,3,2,1,8,{8}7,6,6,
5,5,3/4h[4:1],2,1,8h[4:1],,7-4[8:1],
8/7,,,3,3,4,4,3h[4:1],
{16},,2,1,8,7,6,5,,,{8}3/4,,7/8,
,6h[4:1],{16},,5,4,3,2,{8}1,8,8,
7,7,6/5h[4:1],7,8,1h[4:1],,2-5[8:1],
1/2,,,6,6,5,5,6h[4:1],
{16},,7,8,1,2,3,4,,,{8}6/5,,2/1,
,3h[4:1],{16},,4,5,6,7,{8}8,1,1,
2,2,3xh[4:1]/B8,B7,B6,3h[16:3]/B8,B7,B6,
2xh[4:1]/E8,E7,E6,2h[4:1]/E8,E7,E6,1xh[4:1]/B7,B6,
B5,1h[4:1]/B7,B6,B5,8xh[4:1]/E7,E6,E5,8h[4:1]/E7,
E6,E5,{24}8b,1,2,3,,,8b,7,6,5,,,8b,1,2,3,,,8b,
7,6,5,,,{8}6xh[4:1]/B1,B2,B3,6h[4:1]/B1,B2,B3,
7xh[4:1]/E2,E3,E4,7h[4:1]/E2,E3,E4,8xh[4:1]/B2,B3,
B4,8h[4:1]/B2,B3,B4,1xh[4:1]/E3,E4,E5,1h[4:1]/E3,
E4,E5,{24}1b,8,7,6,,,1b,2,3,4,,,1b,8,7,6,,,1b,
2,3,4,,,{8}5/6,6,6,6,4,4,
5,5,4/3,3,3,3,8,8,
1,1,2/7,7,7,7,5,5,
6,6,7/2,2,2,2,4,4,
3,3,1/8,1h[4:1]/8h[4:1],{24},,,,7/2,6/3,{8}5/4,5,
3,7,1/8,1h[4:1]/8h[4:1],{24},,,,2/7,3/6,{8}4/5,4,
6,2,8/7,E3/B3/B4,,2/1,{4}E7/B6/B5,
{8}7/2,E6/E5/E4,,8/1,{16}2,3,7,6,3,4,6,5,
4,5,4,5,{4}4>5[2:3],{2}5h[4:3],
{4},,,,,4,
,4,
,4,5,{16}4,5,4,5,
3,6,2,7,{8}1,1,8,1h[8:3],,,8,
8,2,8h[8:3],,,3,3,
3,3-8b[8:1],,,6,6,6,6-1[8:1],
{16},,,,3b,4,5,6,7,8,5b,4,3,2,1,8,
3x,2x,6x,7x,3x,2x,6x,7x,6/2,5/1,4/8,3/7,2b,1,8,7,
6,5,8b,1,2,3,4,5,8x,7x,4x,5x,8x,7x,4x,5x,
7/4,6/3,5/2,4/1,{24}8,7,6,5,8,7,6,5,8,7,6,5,4bx,3,2,1,8,7,
6,5,4,3,2,1,{16}4b,8,4b,8,4b,8,4b,8,5,7,5,7,
5,7,5,7,{24}8b,1,2,3bx,4,5,2b,3,4,5bx,6,7,{4}4-1[8:1]/8-5[8:1],
{1}4b>7[4:27]/8b<3[4:27],
,,,,,,,,{4},,,(85){8},
4,
{16},5,,,,6,,,,,(78){8}4h/5h,2,3,
4h[4:1],6,5,5/4,3,2,8,7,
6,5h/4h,2,3,4h[4:1]/5h[8:1],,,6/3,
4,3,2,7,6,(73)5h/4h,3,2h[8:3],
7,6,5,(70)5h/4h,3,2h[8:3],5,6,
7,(65)8<3[0.9231##1.8462],,,,,,(55)1>6[16:5],
,,{4}7h[4:1],{8}6h[8:3],,,5h[2:1],
{24},,,,,,,,,4b,5,6,{2}3/7-3[2:3],
E
