&title=フェレス
&artist=栗山夕璃
&first=0
&des=crystal
&lv_2=5
&lv_3=8
&lv_4=11+
&lv_5=13+
&inote_2=(220){64},,,,,,,,,{4},
{2},,,,5,4,4h[2:1],,4,5,5h[2:1],,6,7,7h[2:1],,3,2,2h[2:1],,6,6,7,,3,3,2h[4:5],,,,8,8,1/8,1/8,1b/8b,,
6,,6,3,3,,3,6,8^5[4:3],,,,4^1[4:3],,,,5,5,5/2,,4,4,4/7,,6^3[4:3],,,,2q7[4:3],,,,1/7,1/7,7/2,7/2,7h[1:1]/3h[1:1],,,,3/7,3/7,3/6,3/6,3h[1:1]/5h[1:1],,,,E3,,E4,,E5,,E6,,E7,,1xh[1:2],,,,,,
5b/6b,5/6,5/6,,3/4,3/4,3/4,,7,,8,,2h[1:1],,1,,1/2,1/2,1/2,,7/8,7/8,7/8,,6,,5,,3h[1:1],,4,,7<2[4:7],,,,,,2,2,2>7[4:7],,,,,,7,7,1h[2:1],,8h[2:1],,1/8,,2/7,,5h[2:1],,4h[2:1],,5/4,,6/3,,Ch[2:3],,,{32},,,,,,,,,,,,,,,{2}
5b,5,6,6,4,4,3,3,2h[1:1],,,,7h[1:1]/1,1,1b,,8,8,7,7,1,1,2,2,6h[1:1],,,,3h[1:1]/5,5,5,,8>5[4:7],,,,,,5,5,1<4[4:7],,,,,,4,4,3h[2:1],,6h[2:1],,3/6,,4/5,,2h[2:1],,7h[2:1],,2/7,,1/8,,1b/8b,,,,3,3/4,6,5/6,3h[2:1],,6h[2:1],,4xh[1:2]/5xh[1:2],,,,E
&inote_3=(220){64},,,,,,,,,{4},,,,,,,,,
1,1,2,,7h[2:1],,,,8,8,7,,2h[2:1],,,,5,,5/6,,4,,3/4,,5,,5/7,,4,,2/4,,7,7,6,6,7,7,8,,2,2,3,3,2,2,1,1,,1b,,,2,2,3,,8,8,7,7,6h[2:1],,,,4h[2:1]/5h[2:1],,,,5-8[4:1]/4,,,,3h[2:1]/6h[2:1],,,,3-8[4:1]/6,,,,7,,6/8,,7,,7,,2,,2,,1h[2:1]/3h[2:1],,,,1-4[4:3]/7-3[4:3],,,,,,,,8-5[4:3]/2-6[4:3],,,,,,,,6,,6,,5,,5,,4,,4,,3,,3,,2h[1:1],,,,5,,5,,7h[1:1],,,,4,,4,,3h[1:2],,,,5,,6,,B5,,B6,,E7,,,,2,,2,,1,1,1/8h[4:1],,7,,7,,8,8,8/1h[2:1],,,,,,6,,7,,3,,2,,3/8,,2/7,,
1b/6b,,2/7,,8,8,8,,3/8,,2/7,,1,1,1,,7h[2:1],,5,,2h[2:1],,4,,3p8[4:5],,,,,,,,5/7,,4/6,,3,3,3,,4/2,,5/3,,6,6,6,,7h[2:1],,8,,2h[2:1],,1,,1-4[4:3]/8-5[4:3],,,,,,,,2,1,2,,7,8,7,,3,4,3,,6,5,6,,2,1,2,,7,8,7,,E8,,B7,,B6,,E6,,3,4,3,,6,5,6,,2,1,2,,7,8,7,,3,4,3,,6,5,6,,E4,,B3,,B2,,E2,,1xh[2:1],,7x,,1x-4[4:1]/7x-4[4:1],,{32},,,,,,,,,,,,,,,{4}
4b,4,5,5,6,6,7,7,5,5,4,4,3,3,2,2,7h[2:1],8,1,,2h[2:1],1,8,,3/7,,2/6,,1x^7b[4:1]/5x^3b[4:1],,,,1,1,8,8,7,7,6,6,8,8,1,1,2,2,3,3,7h[2:1],4,3,,2h[2:1],5,6,,4/5,,3/6,,2/7,,1/8,,7h[2:1],8,,,2h[2:1],1,,,6h[2:1],5,,,3h[2:1],4,,,7h[2:1],8,,,2h[2:1],1,,,E2/E8,,E3/E7,,E4/E6,,Cf,,6h[2:1],5,,,3h[2:1],4,,,7h[2:1],8,,,2h[2:1],1,,,6h[2:1],5,,,3h[2:1],4,,,1h[2:1]/8h[2:1],,,,2h[2:1]/7h[2:1],,,,3bh[1:1]/6bh[1:1],,,,,,,,3,,2,,6,,7,,4,4,3,,5,5,6,,3,3,2,2,6,6,7,7,7x/2x,E
&inote_4=(220){64},,,,,,,,,{4},,,,,,,,,{8}
1,,1,1,,2,,2,,2,,2,,3,,4,5,,5,5,,6,,6,,6,,6,,7,,8,1,,1,2,,1/2,,1/2,,2,,1,,8,,7,8,,8,7,,7/8,,7/8,,7,,8,,1,,2,3-6[4:1],,,,,,,,7-2[4:1],,,,,,,,8-3[4:1],,,,,,,,1-6-2-5-8b[1:1],,,,,,,,,,7bxq3[4:1],,,,,,2p6[4:1],,,,,,,,4^1[4:1]/5^8[4:1],,,,,,,,D2/D7,,A2/A6,,D3/D6,,,,
7h[4:1],,3,,6h[4:1],,,,2h[4:1],,6,,3h[4:1],,,,1/8,,1/8,,7h[4:1]/6h[4:1],,,,8/1,,8/1,,2h[4:1]/3h[4:1],,,,3h[4:3]/4>7[2:1],,,,,,,,4,,5/6,,5/6,,5/6,,2/6,,,,3/7,,,,3v2[4:1]/7v6[4:1],,,,,,,,8,8,6,6,1,1,3,3,2h[2:1],,,,7h[2:1],,,,2x,,,,7/4,,,,6,,5,,1,,8,,7,,,,1/5,,,,5/2,,,,1p4[4:3]/5p8[4:3],,,,,,,,,,,,6,,6,,6,,6,,6h[4:3],,,1h[8:3],,,,,2h[4:3],,,5h[8:3],,,,,E3/E7,,,,E2/E6,,,,E3/E7,,,,E4/E8,,,,8h[8:3]/6h[4:3],,,,,,,,1h[8:3]/3h[4:3],,,,,,,,B2/B6,,,,B1/B5,,,,B2/B6,,,,B3/B7,,,,8^6[4:1],,2^4[4:1],,,,,,7^5[4:1],,1^3[4:1],,,,,,7w3[4:5],,,,,,,,,,,,,,,,C,,,,6,,6,,2/4,,2/4,,8,,8,,1h[1:1],,,,7h[2:1],,,,,,1/7,,1/7,,
1-4[8:1]/7-4[8:1],,1b/7b,,,4,5,3,6,2,7,,2/8,,2/8,,2-5[8:1]/8-5[8:1],,,,,4/6,3/7,,2h[8:3]/8h[8:3],,,,,,5,5,,1h[8:3],,,,,4,4,,8h[8:3],,,,,8-3[4:1],,,,1-6[4:1],,,,7-4[4:1],,,,2-5[4:1],,,,6,,6,,6b/4b,,,,2,8,2,,3/5,,,,7,1,7,,1-5[4:1]/8,,,,8,,,,8-4[4:1]/1,,1,,1,,,,5h[2:1],,6,,4,,4,,4h[2:1],,3,,5,,5,,5h[2:3]/4,,,,3,,,,2,,,,1,,,,2,2,,4x/5x,,,7,7,,4b/5b,,,6,,6,,7,,8,,8,,,,2,,1,,1,,,,8,8,,4x/5x,,,1,1,,4b/5b,,,3h[1:1],,,,6h[2:1],,,,,,,,2h[4:1]/7h[4:1],,,,C,,,,7,7,,4x/5x,,,2,2,,4b/5b,,,6q3[4:3],,,,,,,,2p7[4:3],,,,,,,,,,,,1,1,,4x/5x,,,8,8,,4b/5b,,,7xh[1:2],,,,B8,,B7,,B6,,,,B1,,B2,,B3,,,,4/5,,,,3/6,,,,2/7,{32},,,{8}1/8,,1/8,,
8z4[8:1]/1s5[8:1],,1b/8b,,,6,3,7,2,8,1,,1/8,,1/8,,1-6[8:1]/8-3[8:1],,,,,2/7,3/6,,4h[8:3]/5h[8:3],,,,,,B7,B8,,,1/2,,1/3,,B2,B1,,,8/7,,8/6,,5x<5-7-1-3-5<5b[4:7],,,,,,,,,,,,1x-5b[4:1],,,,,,,,6/1,,6/2,,6/3,,6/4,,3/8,,3/7,,3/6,,3/5,,5h[2:1],,4,,4h[2:1],,5,,5,,4,,6,,3,,8h[4:3],,7,,1,,2,,1h[4:3],,2,,8,,7,,6h[2:3]/7,,,,8,,,,1,,,,2,,,,3,3,,4x/5x,,,6,6,,4b/5b,,,3,,2,,1,,8,,7,,6,,8,,1,,2,,3,,5,5,,5x/4x,,,4,4,,4b/5b,,,4h[4:1]/5h[4:1],,,,5h[4:1]/6h[4:1],,,,7h[4:1]/8h[4:1],,,,1h[4:1]/2h[4:1],,,,3bh[4:1]/4bh[4:1],,,,6,6,,4x/5x,,,3,3,,4b/5b,,,6-1^8-3[4:3],,,,,,,,2-5^4-7[4:3],,,,,,,,,,,,4,4,,4x/5x,,,5,5,,4b/5b,,,2xh[1:2],,,,B1,,B2,,B3,,,,B8,,B7,,B6,,,,
6b,,6,,7,,7,,8h[4:1],,,,1,,3,,3,,3,,2,,2,,1h[4:1],,,,8,,6,,6,,5,,4,,3,,7,,8,,1,,2,,B4/B5/B6,,,,4h[4:1]/6h[4:1],,,,B5/B4/B3,,,,5h[4:1]/3h[4:1],,,,4x,E
&inote_5=(220){64},,,,,,,,,{4},,,,,,,,,{16}
6,,2,,7,,1,,,,8,,,,3/5,,,,8,,,,2/5,,,,3,,4,,5,,7,,3,,8,,2,,,,1,,,,4/6,,,,1-6[8:1]*^6[8:1],,,,1-4[8:1]*^4[8:1],,,,1,,,,,,6,,2,,7,,1,,,,8,,,,3/5,,,,8,,,,8,,,,5,,6,,7,,3,,7,,2,,8,,,,1-6[8:1]*^6[8:1],,,,1-4[8:1]*^4[8:1],,,,1pp5[8:3]*qq5[8:3],,,,,,,,,,,,,,6h[4:1]/3,,3,,2,,,,3h[4:1]/6,,6,,7,,,,6,5,7,,3,4,2,,6,5,8,,3,4,1,,8h[4:1]/2,,2,,3,,,,1h[4:1]/7,,7,,6,,,,5pp8[4:3],,,,4qq1[2:1],,,,,,,,,,,,,,,,1xb/8xb,,,,,,,,3/7,,,,3/7,,,,4v2[8:1]/8v6[8:1],,,,4/8,,,,,,,,6h[4:1]/3,,3,,2,,,,3h[4:1]/6,,6,,7,,,,E7,,,,E7,,,,{64}E7`A6/B6,E6/D6,A5/B5,D5/E5,A4/B4,D4/E4,A3/B3,D3/E3,,,,,,,,,{16}
,,,,8,,8,,8,,,,7,,7,,7,,,,6^1[8:1],,,,6-2[8:1],,,,6^3[8:1],,,,6,,,,1,,1,,1,,,,2,,2,,2,,,,3-6[8:1],,,,3-7[8:1],,,,3-8[8:1],,,,3,,,,1h[4:1],,,,2h[4:1],,,,3h[4:1],,,,4h[4:1],,,,5,,5,,4/6,,4/6,,3/7,,3/7,,2/8,,2/8,,1,,,,1,,,,1,,,,1,,,,{64}1,D1,A8,D8,{16},,,{64}1,D2,A2,D3,{16},,,{64}1,E1,B8,B7,{16},,,{64}1,E2,B2,B3,{16},,,5-7[8:1],,4-8[8:1],,5,,4,,5-1[8:1],,4-2[8:1],,5,,4,,5h[2:1],,,,4,,,,4h[4:1],,,,5,,,,{64}4/5,D4/D6,A3/A6,D3/D7,{16},,,,,,,8h[2:1]/1,,,,7,,,,1h[2:1],,,,2,,,,8h[2:1],,,,7,,,,1,,,,2,,3,,4,,5,,,,6/8,,,,,,6,,5,,4,,,,1/3,,,,7/8,,,,7/8,,,,8/1,,,,1/8,,,,1-5[8:1]/2-4[8:1],,,,2-6[8:1]/1-7[8:1],,,,1/2,,,,,,,,
3h[16:7],,,,,,,,2,1,8,7,6,,,,6h[16:7],,,,,,,,7,8,1,2,3,,,,B7/B8/E8,,,,B7/B8/E8,,,,Ch[4:1],,,,,,,,B2/B1/E2,,,,B2/B1/E2,,,,Ch[4:1],,,,,,,,4h[16:7],,,,,,,,3,2,1,8,7,,,,8h[16:7],,,,,,,,7,6,5,4,3,,,,E1`D8/A8/A1/D1/D2,,,,,,,,E7`D6/A6/A7/D7/D8,,,,,,,,E5`D4/A4/A5/D5/D6,,,,,,,,E3`D2/A2/A3/D3/D4,,,,,,,,3>6[4:1],,,,6<3[4:1],,,,,,,,,,,,6<3[4:1],,,,3>6[4:1],,,,,,,,,,,,3>6<3[4:5]*-6-3[4:5],,,,,,,,,,,,,,,,,,,,,,,,,,4,,,,5,,6,,,,,,,,1/7,,,,1/7,,,,1h[2:1]/7h[2:1],,,,,,,,,,,,2/8,,,,2,,8,,2,,8,,3,,7,,3,,7,,3xh[4:3],,,,,,,,5,,,,
5w1b[8:1],,,,5b,,,,,,1h[4:1],,5h[4:1],,,,2,,3,,6,,7,,8/4,,,,8/4,3/7,2/6,1/5,8^3[8:1]/4^7[8:1],,,,,,,,,,6,,6h[4:1],,,,,,3,,,,3h[4:1]/7h[4:1],,,,,,1-3[8:1],,8,,1/5-7-1[8:3],,6,,4/5,,,,,,,,8-6[8:1],,1,,8/4-2-8[8:3],,3,,4/5,,,,,,,,5-2-4-1[1:1]*-8-6-1[1:1],,,,,,,,,,,,,,,,,,,,,,,,{64}E1,B8,B7,E7,{16},,,{64}E2,B1,B8,E8,{16},,,{64}E3,B3,B4,E5,{16},,,{64}E4,B4,B5,E6,{16},,,3b/7b,,2,,8,,1,,3/7,,6,,4,,5,,6/2,,7,,1,,8,,6/2,,3,,5,,4,,3/4,,5,,6,,7,,8/1,,2,,3,,4,,5/6,,7,,8,,1,,2-7[8:1]/3-6[8:1],,,,2/3,,,,6-1[8:1],,5,,6/3-7-1[8:3],,7,,3/4,,,,,,,,3-8[8:1],,4,,3/6-2-8[8:3],,2,,6/5,,,,,,,,7h[4:3],,,,,,,,1,,,,1,,,,1,2,7,6,2,3,6,5,4h[4:1],,,,,,,,
7/8,,6/7-3[8:1],,,,7b,,,,,,2/1,,3/2-6[8:1],,,,2b,,,,,,7/8,,,,7/8,,,,8h[2:1],,,,1h[2:1],,,,,,,,,,,,2bh[4:3],,,,,,,,5,,6,,7,,,,8/1,,7/8-4[8:1],,,,8b,,,,,,1/8,,2/1-5[8:1],,,,1b,,,,,,4/5,,,,4/5,,,,2/3,,,,2/3,,,,1/8,,,,1/8,,,,6/7,,,,6/7,,5x,,4x,,5x,,,,,,7/6,,5/6-2[8:1],,,,6b,,,,,,2/3,,4/3-7[8:1],,,,3b,,,,,,5/6,,,,5/6,,,,7,,,,7^2[2:1],,,,7,,,,2p7[4:3],,,,3,,,,4,,,,5,,,,6,,,,6/5,,4/5-1[8:1],,,,5b,,,,,,3/4,,5/4-8[8:1],,,,4b,,,,,,6,,,,6,,,,7h[4:1],,,,8h[4:1],,,,1h[4:1],,,,2h[4:1],,,,3h[4:1],,,,4h[4:1],,,,5h[4:1],,,,6,,,,4x-2-7[4:1]/8x-6-3[4:1],,,,,,,,,,,,,,8b/4,1b/5,2b/6,3b/7,4b/8,1-6-3[4:1]/5b-2-7b[4:1],,,,,{32},{16},,,,,,,
1b/2b,,,,3,,8,,7/8,,,,6,,1,,8h[8:3]/1,,2,,3,,4,,1h[8:3]/8,,7,,6,,5,,3/4,,,,6,,7,,5/6,,,,3,,2,,,,3h[4:1]/8h[4:1],,,,,,2-6[8:1],,3,,2/8-6-4[8:3],,1,,8/4,,,,,,,,7-3[8:1],,6,,7/1-3-5[8:3],,8,,1/5,,,,,,,,Ch[2:1],,,,,,,,A1,A2,A3,A4,A5,A6,A7,A8,D2,D3,D4,D5,D6,D7,D8,D1,5bw1b[8:1],,,,5b,,,,1bw5b[8:1],,,,1b,,,,3b/7b,,2,,8,,1,,3/7,,6,,4,,5,,6/2,,7,,1,,8,,6/2,,3,,5,,4,,3/2,,1,,8,,7,,5/6,,4,,3,,2,,8/1,,7,,6,,5,,3-8[8:1]/4-7[8:1],,,,3/4,,,,5-8[8:1],,6,,5/4-2-7[8:3],,7,,5/4,,,,,,,,4-1[8:1],,3,,4/5-7-2[8:3],,2,,4/5,,,,,,,,7h[4:3],,,,,,,,1,,,,1,,,,2,3,8,7,3,4,7,6,5h[4:1],,,,,,,,
8,,{64}8^5[8:1],D1,A1,D2,{16},,,8b,,,,,,1,,{64}1^4[8:1],D1,A8,D8,{16},,,1b,,,,,,1/8,,,,1/8,,,,4/8,,,,4/8,,,,8^5b[4:1]/4>5b[4:1],,,,4/8,,,,,,,,,,,,1h[4:1]/8h[4:1],,,,,,,,8,,{64}8^5[8:1],D1,A1,D2,{16},,,8b,,,,,,1,,{64}1^4[8:1],D1,A8,D8,{16},,,1b,,,,,,3,,,,3,,,,6,,,,6,,,,4,,,,4,,,,5,,,,5,,,,1xb,8xb,2xb,7xb,3xb,,,,2,,{64}2v5[8:1],E2,B1,B8,{16},,,2b,,,,,,7,,{64}7v4[8:1],E8,B8,B1,{16},,,7b,,,,,,7/8,,,,7/8,,,,6,,,,6-3^2[2:1],,,,6,,,,2-7-5-3[4:3],,,,1,,,,8,,,,1,,,,2,,,,2,,{64}2v5[8:1],E2,B1,B8,{16},,,2b,,,,,,7,,{64}7v4[8:1],E8,B8,B1,{16},,,7b,,,,,,4,,,,4,,,,5h[4:1],,,,6h[4:1],,,,7h[4:1],,,,8h[4:1],,,,1h[4:1],,,,2h[4:1],,,,3h[4:1],,,,4h[4:1],,,,5bh[2:3],,,,,,,,,,,,,,,,,,,,,,,,,,,,,,,,8h[4:1]/3,,3,,4,,,,1h[4:1]/6,,6,,5,,,,8/3,,,,8/4,,,,1/6,,,,1/5,,,,4h[4:1]/6h[4:1],,,,,,,,4h[4:1]/6h[4:1],,,,,,,,4h[4:1]/B6/B7,,,,,,,,4h[4:1],,,,,,,,4h[4:1],,,,,,,,4h[4:1],,,,,,,,4h[4:1],,,,,,,,4h[4:1]`E7,,,,E7,,,,E7`4x,E
