&title=愛♡スクリ~ム
&artist=AiScReam
&first=0
&des=AKIYA.& July.
&des_5=AKIYA.& July.
&lv_5=13+
&inote_5=(132){4},,,,{1}8<8[2:7],
{8}B8,C,{4},,,{1}C/B3,
{8}B5,C,{4}B1,{2},{8}1>1[4:13],
{4},,,{8}6,
{1}6h[8:1],
2>5[4:5],
{4},,,{8},5x,
{16}3x,{8},{16}4x,{4}2x,{8}2x,4x,{16}7x,{8},{16}5x,
{8}3x,2x,5x,6x,{4}7x,2x,
{8}3h[8:1],5h[8:5],,2,2,2,{4}2,
{8}6h[8:1],4h[8:5],,7,7,7,7,B2,
{16}E7,{8},{16}B3,{4}B5,{8}B1,C,B6,{16}E4,C,
{8}E8,E3,B4,B5,{4}E7,C,
{8}5h[8:1],6h[8:1],,2,7,2,{4}7,
{8}5h[8:1],6h[8:1],,2,7,2,{4}7,
3,{8}2b>4b[8:1],1,7b<5b[8:1],8,{4}7,
{16}1,{8},{16}2,{8},3,4,5,{4}4,
7-5[8:1],7/1-3[8:1]*-7[8:1],1-5[8:1],{8}1,7,
,3,{4}2-4[8:1],2/8-6[8:1]*-2[8:1],8,
{16}7-4[8:1],1,{8}8,7,2,{16}6<8[8:1],{8},{16}4,{4}6,
{8}2-5[8:1],8,2,7,{16}3>1[8:1],{8},{16}5,{4}3,
8-6[8:1],8-2[8:1],8z4<8[2:1]*s4>8[2:1],{8}8,B4/Cf,
{2},4h[4:1]/B8/Ch[4:1],
{8}E1/E5/Cf,{4},{8}6xh[2:1],4x,3x,2x,1xh[4:1],
,8xh[8:1],{4}2xh[16:9],{2},{8}B8/B5/B4/E4/B7/B1/E6/Cf,
{4},{8}B1,B6,B3,B8,C,
,5q5[8:3],{4}1q1[4:1],{2},{8}E4/E5/B3/E8/E1/B1/Cf,
{4},{8}1b>3b[8:1],4,7b<5b[8:1],4,7,
,2,{4}6,{8},4v7>4[8:9]*v1<4[8:9],,Cf/B4/B7/B1,
{1},{4},{8}5,
3,6,2,{4}7v2[4:1],
2v7[4:1],7v4[8:1],2,{8}3h[1:1],6,
1,1,6,6,{4}1,1,
6-8[4:1],8v1[4:1],1-3[4:1],3<1[8:5],
{2},{8}B4,E3,{4}B1,
1>4[8:1]/5<8[8:1],5p1[8:1]/1p5[8:1],5/1,{8}6/2,7/3,
6/2,7/3,{4}2>4[8:1]/6<8[8:1],2<8[8:1]/6>4[8:1],6/2,
{1}4-1>4[8:3]/8-5<8[8:3],
2-5-1[8:3]/7-4-8[8:3],
{8}6,1,7-4[8:1],8,{4}7,{8}2-5[8:1],1,
{4}2,{8}7-4[8:1],8,{2}7/1q6p1[4:1],
{4},{8}2-5[8:1],1,2,{4},{8}7-4[8:1],
,7/2-5-1[4:1],{4},{8},Cfh[8:1],{4},{8}2,
2,2>5[8:1],2,{4}2/8<5[8:1],{8}1p4[8:1],1,
{4}1/8p2[8:1],{8}1-5[8:1],1,{4}1,{8}6q3[8:1],6,
{4},{8}4q1[8:1],4,4>1[8:1],{4},{8}8<5[8:1],
,8q5[8:1],,8/7<4[8:1],{2}7,
{8},E8,{24},B2,{6},B6,E4,Ch[12:1],
{8},1,{16},2,{8},{16}3,{4},{16}4,{8}5,
{2}4h[4:1],{64}1h[4:1],Cfh[64:15],{4},{16},,,{32},{8}3h[8:1],
5h[8:1],{4}4pp4[4:1]*qq4[4:1],{2}4,
{64}7,8,{16},{32},{64}8,1,{16},{32},{64}1h[8:1],2,{16},,,{32},{16}3,{4},{16}5,6,7,
{4}2b,8b,{16}1b,{4},{16}5x,4x,5x,
{2}4xh[4:1],{64}6xh[4:1],1xh[64:15],{4},{16},,,{32},{8}6x,
6x,{4}6x<2v4[4:1],{2}6x,
{16}1x,7x,2x,6x,{8}3x,5x,{6}4x,{48}6x,{8},{48}2x,{24},{16}3x,4x,
{4}6bx/7bx,2bx/3bx,{8}1bx,{4},{16}B4,B5,
{2}Ch[4:1],{32}E4f,B3,B2,E2,{8}A1,{4},{8}B6,
B5,{4}Ch[4:1],{2}E8f,
{8}B2,B8,5pp5[4:1],5qq5[4:1],{2},{4}B7f,
E2f,{8}Cf,{4},{8}4/5,
{2}4h[16:7]/5h[16:7],{32}3bx/6bx,2bx/7bx,{16}1bx/8bx,{4},{8},2/6<2[4:1],
6/2,{4}6/2v4[8:1],{2},{8}5/4,
4/5,{4}5/4qq4pp4[2:1],{2}4b/B8f,
{4}7>1[8:1],7-4-1[4:1],{2}Cf,
{4}2-5[8:1],{8}2/8-4[8:1],7,8/1w5[8:1],2,{4}1b,
7bx/8xp3q8[8:3],{32}A7,D7,A6,D6,{8}A5,{32}D5,A5,D6,A6,{8}D7,7x,6x,
4/5pp5[4:1],3,2/5qq5[4:1],1,{4}1w5[8:1],1b,
{32}6bx/3bx>7[4:1],5x,{16}4x,{8},{32}7x>3[4:1],6x,{16}5x,{8},{32}6x,5x,{16}4x,{8},7p2[4:1],1,
{2}2q7[4:1],{32}B2,B3,{16}B4,{8},{32}B7,B6,{16}B5,{8},{4}3x/E5/E4/B4f,
6x/E6/E5/B5f,1x/B8f/E8/E1,{8}2/8-4[8:1],7,
8/2-6[8:1],1,{4}2/5pp5[4:1]*qq5[4:1],{2}5b,
{4}5/3h[4:1],{8}4-8[8:1],5,{4}4x/6h[4:1],{8}5-8[8:1],4,
{4}5x/3h[4:1],{8}4pp4[4:1]*qq4[4:1],5,{2}4x,
{8}7x<1[4:1],8x,1x>7[4:1],8x,7x<1[4:1],8x,1x>7[4:1],8x,
7x-4-1[4:1],8x,{4}1<7[8:1]*<7[8:1],Cf,{8}2bx/7bx,4bx/5bx,
{4}Cf/E5/B7/E7/E3/B3/B4/B2/B6/B5,{8}5-7[8:1]*-1[8:1],4,{4}5xw1[8:1],5bx,
4>1[8:1]*-7[8:1],4,{8}8w4[8:1],7x/1x,{4}8/Cf,
{8}2x>8[4:1],1x,8x<2[4:1],1x,2x>8[4:1],1x,8x<2[4:1],1x,
2x-5-8[4:1],1x,{4}8>2[8:1]*>2[8:1],Cf,{8}7bx/2bx,5bx/4bx,
{4}Cf/E5/B2/E3/E7/B6/B5/B7/B3/B4,{8}7<3[8:1],7,{4}2>6[8:1],C,
{8}8-4[8:1],7,8/3-1[8:1],2,3/8-5[8:1],7,{4}8bx,
{16}3,4,,3,4,2,5,1,6,2,7,3,{4}8,
{8}6x,{16}6x,4x,,4x,5x,4,5,3,6,2,7-3[8:1],1,6,2,
{8}7x,{16}2x,1x,{8}8x,{16}5,4,5,3,6,2,{4}7,
{8}6,{16}6,8,,8,{8}1,{16}2-6[8:1],1,3,1,{4}2x,
{16}6,5,,6,5,7,4,8,3,7,2,6,{4}1,
{8}7,{16}7,6,,6,{8}5,{16}3-7[8:1],4,2,4,{4}3x,
{16}6,5,,6,5,6,4,7,5,6,4,5,{4}3,
{16}4,5,,4,6,3,7,2,{8}8w4[8:1],7/1,{4}8bx/Cf,
{8}6xpp4[4:1],6x,{4}5,3xqq5[4:1],4,
6pp4[4:1],5,3qq5[4:1],4,
6pp4[4:1],5,3qq5[4:1],4,
6pp4[4:1],5,3qq5[4:1],4,
{8}6x<2[4:1],6x,{4}4,3>7[4:1],5,
6<2[4:1],4,3>7[4:1],5,
6<2[4:1],4,3>6[4:1],5,
{16}5x,5x,4x,4x,3x,3x,2x,2x,{32}1x,8x,1x,8x,1x,8x,1x,8x,{8}1x,8x/1x,
{4}1bx-4[2:3],E8,B8,B7,
B6,E6,B5,C,
Cf/B2/B3/7bx>2-6-3[2:3],B1,B8,B7,
E8,A7,B6,C,
B2/B3/E3f/7bx>2v3<6[1:1],B8,B7,B6,
B5,B4,C,8bxV63[4:3]/1bx-4[4:3],
{1},{4}8b,
{8}4/5,3,6/2-6[8:1],1/7,{4}2x>5[8:1],
{32}5x>1[8:1],6x,7x,8x,{8}1x,{32}8x>4[8:1],7x,6x,5x,{8}4x,{32}5x,6x,7x,8x,{8}1x,8x,7x,
{4}6x/4xqq4pp4b[2:1],{8}4/7,8,{4}1-7[8:1],1,
{32}4x<8[8:1],3x,2x,1x,{8}8x,{32}1x<5[8:1],2x,3x,4x,{8}5x,{32}4x,3x,2x,1x,{8}8x,1x>5>1[2:1],2x,
8,7,{4}6<3>6[2:1],{2},{4}3b,
6b/B5/B6/Cf,1b/Cf/B1/B2,{8}4<7[8:1]*>1[8:1],5/3,
{4}4-8[8:1],4qq4[4:1]*pp4[4:1],{2}4,
{4}6h[2:1],{8}5,4,{2}3>7[8:1],
{4}8h[2:1],{8}3,2,{4}1h[8:1],B8/A8/D8/A7/E7/B6/E5/B5/B4/B3/E3/A2/D2/A1/B1/Cf,
1x>4[8:1],{32}5x>2[8:1],6x,7x,8x,{8},{32}1x>4[8:1],8x,7x,6x,{8},{32}5x>2[8:1],6x,7x,8x,{8},{32}1x>4[8:1],
8x,7x,6x,{8},{32}5x>2[8:1],6x,7x,8x,{8},{32}1x>4[8:1],8x,7x,6x,{8},5bx,7bx,
{4}Cf,{8}6/2-6[8:1],3/5,{4}2/5<8[8:1],5/4,
{8}3/1>4[8:1],2,7/1<6[8:1],8,{4}1w5[8:1],A1f/D1/D2,
8x<5[8:1],{32}4x<7[8:1],3x,2x,1x,{8},{32}8x<5[8:1],1x,2x,3x,{8},{32}4x<7[8:1],3x,2x,1x,{8},{32}8x<5[8:1],
1x,2x,3x,{8},{32}4x<7[8:1],3x,2x,1x,{8},{32}8x<5[8:1],1x,2x,3x,{8},4bx,2bx,
{4}B2f,{8}4/8-4[8:1],7/5,{4}8/5>2[8:1],5/6,
{8}2/8>3[8:1],1,6/8<5[8:1],7,{4}8w4[8:1],A8f/D8/D1,
{16}5/1bx,2x/6,3x/7,4x/8,5x,6x,7x,8x,1x/5b,2x/6,3x/7,4x/8,5x,6x,7x,8x,
5/1bx,2x/6,3x/7,4x/8,5x,6x,7x,8x,1x/5b,2x/6,3x/7,4x/8,5x,6x,7x,8x,
{4},{8}1>4[8:1],1,1q5[8:1],{4},{8}8<5[8:1],
,8>3[8:1],,6q3[8:1],{16}6,{8},{16}B7/B2/B8f/B1f,{4},{16}4/8bx,
7x/3,6x/2,5x/1,4x,3x,2x,1x,8x/4b,7x/3,6x/2,5x/1,4x,3x,2x,1x,
4/8bx,7x/3,6x/2,5x/1,4x,3x,2x,1x,8x/4b,7x/3,6x/2,5x/1,4x,3x,2x,1x,
{4},{8}1>5v3[4:1]/5<1v7[4:1],1/5,1/5,Cf/B3/B5/B7/B1,,1>4[8:1]*<6[8:1],
,1s5z1[4:1],,1/Cf/B5/B1,{2},{4}1,
2,3/C,4,
5/C,6,7/C,8,
1,2,3/C,4,
5/C,6,7/C,8,
,B6,B5,B4,
B3,E2,E1,E8,
,B2,,E4,
,E6,,{32}3/B8,4,5,6,
