&title=ずんだオーバーダンス
&artist=魔法使いシラガ
&first=0.01
&des=魔法使いシラガ %clock_count=4
&lv_6=13+
&inote_6=(174.925)
{1},
{4},,{16}6,5,,6,3,4,3b,,
{4}8x<5[8:1],8>3[8:1],8-4[8:1],,
{8}7-3[8:1],1,7<4[8:1],1,7x,,47,36,
{4}1>4[8:1],{16}1<6[8:1],,,,{8}1-5[8:1],,,,
{8}21,87,65,43,{16}2,,8,1,8x,,,,
{4}1-7-5[8:1],1-3-5[8:1],1w5[8:1],,
{8}2-6[8:1],8,2>5[8:1],8,2x,,52,63,
{4}8-6-4[8:1],8-2-4[8:1],8w4[8:1],8,
{8}78,12,34,56,{24}7,,,1,8,1,{16}7,1,8x,,
{16}7-4[8:1],,,1,{8}7x,3,68,71,{16}28,,,28,
{8}7,1,7x-4[8:1],1,7x,,47,36,
{16}2-5[8:1],,,8,{8}2x,6,31,28,71,28,
{16}21,,{24}5,6,7,
{4}8xqq5[4:1],8xw4[8:1],,
{16}2-5[8:1],,,,2x,,,2,31,,28,,{16}71,,,,
{16}3,1,2,8,2,,7,,{8}2x,,52,63,
{16}7-4[8:1],,,1,{8}7x,5,68,71,28,71,
{4}8^5[8:1]/4^1[8:1],4q8[8:1]/8q4[8:1],8b/4,Cf,
{4}7x-2[8:1],3-6[8:1],8-5[8:1],4-1[8:1],
{4}7qq5[8:1],2>5[8:1],7qq5[8:1],2x,
{16}6h[8:1],,1,,6h[8:1],,2,2,6h[8:1],,3,,6h[8:1],,4,4,
7,,5,6,2,,4,3,
6h[8:1],,{24}8,1,2,{16}3,4,5x,,
{4}6x-1[8:1],5-2[8:1],7-4[8:1],1-6[8:1],{4}2pp4[8:1],7<4[8:1],2pp4[8:1],7x,
{16}3h[8:1],,8,,3h[8:1],,7,7,3h[8:1],,6,,3h[8:1],,5,5,
2,,4,3,7,,5,6,
3h[8:1],,{24}2,1,8,{16}7,6,5x,,
{4}4x-2[8:1],6v8[8:1],7-4[8:1],8v2[8:1],1-6[8:1],2v4[8:1],3-8[8:1],4x,
{16}6,5,6,5,6x,,3,4,3,4,3x,,5,4,5x,,
2,,4,3,7,,5,6,
3h[8:1],,{24}2,1,8,{16}7,6,5x,,
{4}4x-7[8:1],3v1[8:1],2-5[8:1],1v7[8:1],8-3[8:1],7v5[8:1],6-1[8:1],5x,
{16}3,4,3,4,3x,,6,5,6,5,6x,,4,5,4x,,
7,,5,6,2,,4,3,
6h[8:1],,{24}8,1,2,{16}3,4,5x
,,Cf,,,,,,,,4,4,4,4,4b,,,,
{4}7-2^1q4[2:1],,,,{4}2-7^8p5[2:1],,,,
{8}B2,B3,B4,5qq8[4:1],,,,,B8,B7,B6,5qq1[4:1],,,,,
{8}7,6,5,4s8[8:1]/3z7b[8:1],,,,,8,7,6,,{16}4,,,5,3h/6h,,,,
{8}2,3,4,5-1[8:1]/6-2b[8:1],,,,,1,2,3,,{16}4,6,3,5,8,,,,
{16}7,,2,,6,4,,5,3,,4,,7h[8:1],,5,,
{16}3,,6,,3,5,,4,6,,5,,2h[8:1],,4,,
{16}7,,2,,6,4,,5,3,,4,,7h[8:1],,5,,
{16}3,,6,,
3,5,,4,
2,2,3,3,4,,4,,
{16}6,,23,,6,4,,5,3,3,4,,7h[8:1],,5,,
{16}3,,76,,3,5,,4,6,6,5,,2h[8:1],,4,,
{16}67,,2,,6,4,,5,3,3,4,,7h[8:1],,5,,
{16}32,,7,,3,5,,4,6,5,6,7,6,4,6,,
Ch[4:1],,,,,,,,,,,,1x/8x,1x/8x,1x/8x,1b/8b,
{4}2hx[8:4]/7hx[4:2],,,{24}8,4,8,4,8,4,{16}7,3,6,2,
5,1,4,8,7w3[8:1],,,,7bx,,,,
{16}3-8[8:1],,,5,{8}3x,7,24,35,64,35,
{16}34,,{24}8,7,6,
{4}5xpp8[4:1],5xw1[8:1],,
{16}47,,,,25,,,25,{8}3v1[8:1]/6v8[8:1],27,36,,
{8}5b/6b,3b/4b,2b/1b,7b/8b,{4}5b-1[8:1]/6b-2[8:1],5b/6b,
{4}3qq1[8:1],6<1[8:1],3qq1[8:1],6,
{16}7,1,8,2,7,1,8,2,{24}7x,1,8,1x,8,2b,
{4},
{16}7-2[8:1],,3,3,7p4[4:1],,3,,7x,,,,
1h[8:1],,,,
{16}5,2,7,4,8,,6,,4w8[8:1],,,,4,,,,
{16}2-7[8:1],,6,6,2q5[4:1],,6,,2x,,,,
8h[8:1],,,,
{16}4,,{24}7x,2x,5x,{16}1x,,3,,5h[4:1],,1b,,{24}1b,,,,,,
{4}4x^1[8:1]/8x^5[8:1],8xq4[8:1]/4xq8[8:1],8>3[8:1],,
{4}5x^8[8:1]/1x^4[8:1],1xp5[8:1]/5xp1[8:1],1<6[9:1],,
{16}3h[8:1],,5,5,3h[8:1],,1,1,2h[8:1],,8,8,2h[8:1],,4,,
{16}3,5,4,6,34,,56,,{8}4h[4:1],8b,{24}8b,,,,,,
{16}2-7[8:1],,6,6,2q5[4:1],,6,,2x,,,,
8h[8:1],,,,
{8}56,34,12,78,{16}5w1[8:1],,,,5,,,,
{16}7-2[8:1],,3,3,7p4[4:1],,3,,7x,,,,
1h[8:1],,,,
{16}5x,,{24}5x,6x,7x,{16}8x,,3x,,4hx[4:1],,8b,,8b,,,,
{4}5bx^8[8:1]/1b^4[8:1],1bp5[8:1]/5bxp1[8:1],1b<6[8:1],,
{4}4bx^1[8:1]/8b^5[8:1],8bq4[8:1]/4bxq8[8:1],8b>3[9:1],,
{16}6h[8:1],,4,4,6h[8:1],,8,8,7h[8:1],,1,1,7h[8:1],,5,,
{16}6,4,5,3,6x/5x,,4x/3x,,{24}6,4,5,3,6,4,5,3,5,4,6,3,8b,,,,,
