&title=Undying Macula
&artist=Ashrount
&first=0.02
&lv_5=14+
&des_5=ToKo
&inote_5=
(63){4},{12}3h[6:1],7h[6:1],,2h[6:1],6h[6:1],,8h[6:1],4h[6:1],,1h[6:1],
5h[6:1],,2h[6:1],6h[6:1],,4h[6:1],8h[12:1],{24},,{8}5h[12:1]/3h[12:1],7h[12:1]/1h[12:1],
{4}B7/E7/B6/B2/E3/B3/Ch[6:1],{12}4b/5<8[24:1],{24}5,3,5,4,5b/2>5[24:1],2,1,1,2,8,2b/6,7,8,1/4,3,2,
{12}1b/E6f/B6/B5,7b/E3f/B2/B3,4b/E8f/B8/B7,7-2[6:1]/3-6[6:1],{24},,,,,,,,,,4/8b,6,6,1b/5,3,3,
{12}8bs4>8[12:11]`7bz3<7b[12:11],4b/6b,1b/3b,7b/8b,{4},,,{16},,{24},{48}2,
3,4,5,7,6,5,4,1s5s1[2:1],2,3,4,1,2,3,4,5,6,7,8,{3}1/5b,
{48},,,,,,,,,,,,7,6,5,4,2,3,4,5,8z4z8[2:1],7,6,5,8,7,6,5,4,3,2,1,{3}8/4b,
{12},,,2bx/6bx,{48}7,8,7,8,5,4,5,4,1,2,1,2,5,4,6,3,7,2,8,1,{12}7bx/3bx,{48}6,8,6,8,6,2,6,2,
6,4,7,5,8,4,7,3,6,2,5,1,{24}8bx/4bx,8x/4x,1/5,5/1,6/2,2/6,3q3>7b[16:7]`7q7<3[16:7],7/3,{48}4,8,4,8,{72}2,1,2,1,{4},,{64},{576},,,,,,,{72}E1,
E2,E3,E4,E5,E6,E7,E8,E1,E2,E3,E4,E5,E6,E7,E8,{144},,,,{48}2bh,6,4h,8,3h,7,1h,5,{24}4/6,7/8,2/1,{48}5,4,{24}3,6/1,8/3,{48}4,5,
{72}6,A6,E7,B7,B8,E1,A1/A2/D2,E3,B3,B4,{36}E5,{24}8/7,6/5,{72}2b/1b,3/8,4/7,6/5,,,{24}2/1,5,8/7,4,{72}5/2,3,4,5,6,7,8/4,5/1,2/6,3/7,4/8,5/1,{48}6x,7x,8x,1x,{24}2x/6x,7/3,7/3,3/7,6/5,1/2,
7b/8b,{48}2,3,{24}4b/8,{48}7,6,{12}5b/1,{72}E1,E8,E7,E6,E5,E4,E3,E2,E1,E8,E7,E6,E5,E4,E3,E2,{144},,,,{48}7bh,3,5h,1,6h,2,8h,4,{24}5/3,2/1,7/8,{48}4,5,{24}6,3/8,1/6,{48}5,4,
{72}3,A3,E3,B2,B1,E1,A8/A7/D8,E7,B6,B5,{36}E5,{24}1/2,3/4,{16}7b/8b,7b/6b,{24}6b/5b,5h[24:1]/4h[24:1],{144},6/3,7/2,8/1,,,{48}E7,E6,E5,E4,E3,E2,E1,E8,2,3,4,5,{24}6/8,8,4/8,8,2/8,8/3,
{48}7/4-2-6-8-4[8:1]*-2-6-8-4[8:1],6,5,4,3/8,7,6,5,4/1,8,7,6,{12}5/4,,8b/6h[24:1],{24}5/4,3/2,{12}8b/6h[24:1],{24}5/4,3,1/2,5/3,{12}8b/6h[24:1],{24}4/5,4/3,
1/2,1/8,{12}5b/7h[24:1],{24}3/6,5/1,{48}E5,E4,E3,E2,E1,E8,{24}E7/Cf,1b/3h[24:1],,4/5,6/7,{12}1b/3h[24:1],{24}4/5,6,8/7,4/6,{12}1b/3h[24:1],{24}5/4,5/6,
8/7,8/1,{12}2bh[24:1]/4bh[24:1],6bh[24:1]/8bh[24:1],{72}8/6,5/1,4/2,3,2,1,8,7,6,5/Cf,,,{12}1b/3h[24:1],{48}7,5,{24}7,{12}1b/3h[24:1],{24}4/5,8/7,{48}6,5,{24}6,{12}1b/3h[24:1],{24}5/6,2/1,
{48}7,8,{24}6,{12}5bh[24:1]/1bh[24:1],3bh[24:1]/7bh[24:1],6q6[4:1]`2q2b[4:1],,,,,,,,,,,,7x/8x,
{24}7/5,2x/1x,,2/4,{48}6,5,7,4,{24}8/3,7,6/2,3,{12}5x/4x,{24}4/2,1x/8x,,8/6,
{12}7b/5b,1b/3b,5b/3b,7b/1b,{24}6/5,3/1,,3/4,6/8,{48}2,3,{24}7x/4x,1/8,5x/2x,8/1,{16}7b/2b,2b/7b,{8}7b/2b,
{144}8b/5-7-2-5[6:1]*-3-8-5[6:1],7,6,5,,,,,,,,,2b/5,3,4,5,,,,,,,,,7b/4,6,5,4,{4},{64},,,{576},,,,,{48}2-6[24:1],3,4,5,{24}6/8-4[24:1],8,1-5[24:1],1,{12}2b,8b,1b,
{24}6h[24:1]/4-8[24:1],4,4/2h[24:1],4,4/7h[24:1],4,8/4b,6,6,4b/8,2/1,2/1,1/8,8/7,6/7,5/6,{48}4,3,2,1,{72}8,E8,E7,E6,E5,E4,E3,E2,E1,E8,E7,E6,E5,E4,E3,E2,E1,E8,
{4}E7,,,B7/B1/B5/B3/Ch[72:61],
B6/B5/B1/B2,B8/B7/B3/B4,{72}B7/B6/B2/B3,{16},,{72},{144}A4,D5/D4,A5/A3,D6/D3,A6/A2,D7/D2,A7/A1,D8/D1,{24}A8,{4}B8/B2/B6/B4/Ch[4:3],
B7/B8/B3/B4,B6/B5/B1/B2,B7/B6/B2/B3,{24}8<5[24:1],4,5,4,6,4,
8b/1pp3[24:1],2,3,4/5pp7[24:1],6,7,{8}1b/8,{24}5b/4,3,2,1w5[24:1],5,2,6,3,7,,,,,,,{6}Ch[144:1],
{24}6b/2b,6b/2b,1/7,6/2,5/3,3/1,8/4,5/7,{12}6b/E2f/B2/B1,3b/E7f/B7/B6,8b/E4f/B4/B3,4bx/Ch[16:31],,,{4}5bx,
{8}3bx,3,6bx,6,{12}2b,2,2,
7b,7,7,{48}1b,,,1,,,{16}1,1,8b,8,8,8,{24}4b,3,2,1,8,7,
{32}6b,5,4,3,2,1,8,7,{36}6b,5,4,3,2,1,8,7,6,5,4,3,2,1,8,7,6,5,{72}4b,3,2,1,8,7,6,5,4,3,2,1,8,7,6,5,4,3,
2s6b[32:1],1,8,7,6,5,4,3,2,1,8,7,6,5,4,3,2,1,{64}8,Cf,,,,,,,,,,,,,,,{8}7b/5b>1[8:1],7b/1b,{24}5/1-5[24:1],8,7-3[24:1],6,{12}5/8x-4[24:1],
1bx<4[8:1],7bx,8bx,{24}1/5-1[24:1],4,3-7[24:1],2,1/4x-8[24:1],8,{12}5bx>8[6:1],3bx,4bx,{24}7-3[24:1],7,6-2[24:1],6,5-1[24:1],5,
{12}7bx<3[6:1],6bx,5bx,{24}2-6[24:1],2,1-5[24:1],1,8-4[24:1],8,{12}2bx>7<2[4:1],1bx,8bx,{24}7-3[24:1],7,8-4[24:1],8,1-5[24:1],1,
{12}7bx<2>7[4:1],8bx,1bx,{24}2-6[24:1],2,1-5[24:1],1,8-4[24:1],8,{12}2bx>2b[4:1]*<2[4:1],1bx,{3}8bx,
{12}A2f,Cf,A6f,{48}7b,3h,5,1h,6,2h,8,{96}4,5,6,7,8,1,2,3,4,5,{12}6b/B8/B7/E8f,2b/E4f/B3/B4,B5/B4/E5/Cf/8b<5[12:1],{48}5,4,5,4,1,2,1,2,{12}8,
{48}4,3,2,1,4,3,2,1,{12}8b>3[12:1],{48}4,5,4,5,8,7,8,7,{12}8,{48}4,5,6,7,4,5,6,7,{12}8b>3[12:1],{48}5,2,4,3,7,4,6,5,{12}8,
{48}4,5,6,7,4,3,2,1,{12}8b<5[12:1],{48}6,3,5,4,8,3,1,2,{12}8,{144}8b,1,2,3,,,,,,,,,1b,2,3,4,,,,,,,,,2b,3,4,5,,,,,,,,,8b,7,6,5h[48:71],{16},,,{64},,{288},{12}B7,
B8,B1,{144}B4,B3,{72}E3,,,,,,,,{8}B7/B6,{12}B3,B2,B1,{144}1b,2,3,4h[2:1],{4},,,{16},,,{64},,{288},{12}3h[6:1],
7,7,
2h[6:1],6,6,8h[6:1],4,4,1h[6:1],5,5,2h[6:1],{6}6h[12:1],
{12}4h[6:1],8h[12:1],,3h[6:1],7h[12:1],,2h[6:1],6h[12:1],,{4}8h[6:1]/4h[6:1],
1h[6:1]/5h[6:1],2h[6:1]/6h[6:1],{2}3h[6:1]/7h[6:1],
E
