&title=燕子花 -Kakitsubata-
&artist=polysha vs. モリモリあつし
&first=0
&des=yuzukeai
&lv_5=14
&inote_5=(155)
{1},
{2}Chf[1:1],,
{8},7x,7h[4:1],,1,5h[4:1],,2,4h[4:1],,3,3^1[8:1],,8,7h[4:1],{16}A6,A5,
{8}A4,,A1/B1,,,3h[4:1],,6^8[8:1],,1,2h[4:1],{16}A3,A4,
{8}A5,3,4,5,7,7,2h[4:1],,5,3h[4:1],,6,4h[4:1],,7,5/7^5[8:1],,4,3h[4:1],{16}A2,A1,
{8}A8f,,,,,6h[4:1],,3,,18,27,{16}A3,A4,
{8}A5,7,8,1,2xh[8:1],,
{16}6h[16:1],4h[16:1],5h[16:1],,5h[16:1],,3qq2[4:1],,,,4,,4^7[8:1],,,,4,,3,,A4/B4,,,A5/B5,,,A6,A7,A8,,,,A3/B3,,,,,,7-4[8:1],,,,3,,,,2h[4:1],,E1,E8,E7,E6,E5,,3h[4:1],,E2,E1,E8,E7,E6,,4x/3x,,3h[16:1],5h[16:1],4h[16:1],,4h[16:1],,6,,6,4,5h[16:1],,5h[16:1],,2,,2,4,3h[16:1],,3h[16:1],,7,,7,5,6h[16:1],,4,5,4,5,4,5,4,5,3,4,3,4,3,4,3,4,
{24}2x,1x,8x,7x,6x,5x,2x,1x,8x,7x,6x,5x,2x,1x,8x,7x,6x,5x,8x-4[8:1]/4x,,,,,,3b-1-5b[8:3],,,,,,
{16}1hx[8:1],,,,8h[8:1],,,,7-3[8:1],,,,4b-8-2b[8:3],,,,
{16}8hx[8:1],,,,7h[8:1],,,,6-2[8:1],,,,1b-7-3b[8:3],,,,
{16}7hx[8:1],,,,6h[8:1],,,,5-1[8:1],,,,2b-6-8b[8:3],,,,
6hx[8:1],,,,5h[8:1],,,,4h[8:1],,,,8-2[8:1],,,,8/1-6[8:1],,,,1/5-3[8:1],,,,5/4-7[8:1],,,,4/8-4[8:1],,,,1^6[8:1]/8,,,,5-1[8:1]/1^4[8:1],,,,15,,,,8/B6/E6,,8,,8/B4,,8,,2,5,2,5,1-5b[8:1],4,1,4h[16:5],Cf/1bx,,,,{24}7,8,1,2,3,4,
{16}8xh[16:1]/5,,8xh[16:1],,8x-4[8:1],,8xh[16:1],,81,,,,6b/2h[16:1],,2,,7b/3h[16:1],,3,,8b,4,5,4,1b,4,5,4,7b,4,5,4,2b,4,5,4,6b,4,5,4,2b,4,5,4,7b,4,5,4,1b,4,5,4,6b,4,5,4,2b,4,4,4,5b,4,4,4,3b,4,4,4,4b-1[8:1],4,4b,4,,,,,3b/7h[16:1],,7,,2b/6h[16:1],,6,,1b,5,4,5,2b,5,4,5,8b,5,5,5,3b,5,5,5,7b,5,5,5,4b,5,5,5,6b,5,5,5,4b,6,2b,8,3b,5,1b,7,4q8[8:1]*p8[8:1],,,,4xqq3[4:1]*pp5[4:1],,,,,,,,,,,,2bh[16:1]/8bh[16:1],,3,4,1h[64:1],7,5,6,2,2,6,5,8h[64:1],2,4,3,5^8[8:1],,1,,1,2q6[8:1],3,4,,2,,,1,,,,
7bh[16:1]/1bh[16:1],,6,5,8h[64:1]8,2,4,3,7,7,3,4,1h[64:1],7,5,6,4,,2b/5b,,1>7[16:5],7<1[16:4],1,7,,,,,,,,,3h[64:1]/5,,2,4,1h[64:1],4,2,,6h[64:1]/4,,7,5,8h[64:1],5,7,,2^5[8:1],,5,,7,8,1,2b/6x,,4,3,2,1-6[8:1]/5,,,,1b/4-8[8:1],,5,,4b/1,,2,,7-4[8:1]/3-7[8:1],,26,,7b/3b,,,,1b,,2b/8x,7x,3b/6x,,4b,,5b,5b,,3b,3b,,{24}2b/5b,,,
{16}4xh[16:1]/6xh[16:1],,7,5,8h[64:1],1,4,3,6,6,2,4,1h[64:1],8,5,6,4^1[8:1],,8,,8,7p3[8:1],6,5,,7,,,8,,,,4xh[16:1]/6xh[16:1],,2,4,1h[64:1],8,5,6,3,3,7,5,8h[64:1],1,4,3,5,,7b/4b,,8>4[16:5],2<6[16:4],8,2,,,,,,,,,2b/8b,,4,4,6,6,5,,1b/7b,,5,5,3,3,4,4,2b-4[8:1],,1,,5-2[8:1]/2b,,6,,1-5[8:1]/5b,,8,,1b/5,,,,1b,4,1,4,8b,5,8,5,2b,4,2,4,7b,5,7,5,7bq3[8:1]*p3[8:1],,,,7xqq6[4:1]*pp8[4:1]/Cf,,,,,,,,,,,,
{32}1bx,2bx-5-8b[2:3],3bx-5-7b[2:3],,,,,,,,,,,,,,,,,,,,,,,,,,,,,,,,,,,,,,,,,,,,,,,,,,,,,,,,,,,,,,1x-4[4:3]*-6[4:3],,,,,,,,,,,,,,,,,,,,,,,,,,,,,,,,
{8},,B5,,2/C,,B1/8,,
{32}1xb,2x-5-8[2:3],3x-5-7[2:3],,,,,,,,,,,,,,,,,,,,,,,,,,,,,,,,,,,,,,,,,,,,,,,,,,,,,,,,,,,,,,
{8}1h[4:1]/5h[4:1],,,2h[4:1]/4h[4:1],,,4h[4:1]/7h[4:1],,,5h[4:1]/6h[4:1],,,
{16}47,,,36,,,25,,
{24}4bx-6-3b[8:3],,,,,,
{16}8,,8,,1,,1,,2,,2,,3bx-8-2b[8:3]/5,,,,
{16}4,,4,,5,,5,,6,,6,,7bx-5-1b[8:3]/2,,,,
{16}1,,1,,2,,2,,3,,3,,4bx-8-2b[8:3]/6,,,,
5,,5,,6,,6,,7,,7,,8/1x-7[8:1],,,,1b/2-6b[8:1],,,,2b/3-5[8:1],,,,3b/8-2b[8:1],,,,8b/7-3[8:1],,,,7b/6-4b[8:1],,,,6b-2[8:1]/2-5[8:1],,,,2b/6b,,,,48,,48,,37,,37,,6,2,6,2,6-2b[8:1],2h[16:1],6h[16:1],2h[16:1],Cf/6bx,,,,{24}3x/1x,4x/8x,5x/7x,6x,7x,8x,
{16}5h[16:1]/1x,,5h[16:1],,2-6[8:1]/5h[16:1],,5h[16:1],,2b/5,,,,
{12}1,7,7,5s1[8:33],6,6,5h[12:2],,,2xh[24:1],4,4,3h[24:1],5,5,4h[24:1],6,6,5h[24:1],7,7,2h[24:1],5,5,3h[24:1],6,6,4h[24:1],7,7,5h[24:1],8,8,1h[24:1],5,5,2h[24:1],6,6,3h[24:1],7,7,4h[24:1],8,8,5-1b[8:1],,,
{32}5b,B5,Cf,B1,,,,,2h[4:1],,,,,,,,,,,,,,,,
{12}37,6,5,62,3,4,28,6,5,17,3,4,
{12}2h[12:1]/8h[12:1],,3h[12:1]/1h[12:1],,3h[12:1]/5h[12:1],,7h[12:1]/1h[12:1],,6h[12:1]/8h[12:1],,6b-2[16:1]/4b,6b/4b,
{16}4bq8[8:1]*p8[8:1]/6b/Cf,,,,4xqq3[4:1]*pp5[4:1],,,,,,,,,,,,4bw8[4:3],,,,,,,,,,,,,,,,,,,,
8-4[8:1],,,,4w8b[8:1],,,,4x,,,,2b/6b,,3,5,1h[64:1],8,4,6,2b,2,6,4,8h[64:1],1,5,3,7h[8:1],,{32}5b,4,3,2,
{16}6-4-1[16:5],6-3-8[4:1],3,3,,,,,,,,,2b,4,3h[64:1],4,1h[64:1],5,4h[64:1],5,2b,4,3h[64:1],4,1h[64:1],5,4h[64:1],5,8b,7,4h[64:1],5,8b,7,4h[64:1],5,1b,8,3h[64:1],4,1b,8,3h[64:1],4,1b,7,6,3b,7,6,2b,8,7,4b,8,7,1b>5[8:1],,5b<8[32:3],,,,,,
{32}1xqq8[16:3]*pp2[16:3],2,3,4,5,6,7,8,1q6[8:1]*p4[8:1],,,,,,,,,,,,,,,,
{16}2b,,7-4[8:1],3,7,3,7,,1b,,5-8b[8:1],2,5,2,5,,3h[8:1],,6,4,7h[8:1],,5,6,2h[8:1],,4,3,8h[8:1],,5,6,1b,,2-6[8:1],8,2,8,2,,5b,,7-3b[8:1],4,7,4,7,,5,,4,5,62,,5,4,3/7-3[8:1],,1^4[8:1],,7,,1,,8-4[8:1],,1^6[8:1],2,38,,1,,4-7[8:1],,8,,4,,2,,4^1[8:1],,8,7,6-2[8:1]/4,,6,,6/8-4[8:1],,8,,85,,,,7,3,7,3,6,2,6,2,
{32}5,4,3,2,1,8,7,6,5,4,3,2,1,8,7,6,5b/1bs5[2:1],,,,,,,,,,,,,,,,,,,,,,,,,,,,,,,,
{16}2b,5,5,5,8b-3[8:1],5,5-1[8:1],5,8b,,5b,,4b,,{24}7,6,5,
{16}2,2,{24}8,7,6,
{16}1b-6[8:1],,4b-8[8:1],,1b,,4b,,{32}1,2,3,4,5,6,7,8,1/5b,,,,
{24}3,4,3,
{16}5,5,2,2,2b,,{24}6,5,6,
{16}4,4,7,7h[32:9],,,,,
{32}8b/6b,15,24,3h[32:33],,,,,,,,,,,,,,,,,,,,,,,,,,,,,,,,,4,,,,,,,,,,,,2,,,,5,,,,
{12}1,6,8,7,1,6,2,5,3,
{16}4,5,6,5,4/3h[2:1],,,,,,,,5>7[1:1],,,,,,,,,,,,,,,,,,,,,,,,5>7[4:7]/6h[1:2]
,
&inote_6=
