&title=Cedar Shed
&artist=Koloto
&first=0
&des_1=Turdus
&des_2=Turdus
&des_3=Turdus
&des_4=Turdus
&des_5=Turdus
&lv_5=14
&des_6=Turdus
&des_7=Turdus
&des=Turdus
&inote_5=(140)
{1},
{1}1h[1:4],,7<3[4:6],,
{1}3<7[4:6],,8w4[2:1],1w5[2:1],
{16}4,5,3,6,2,7,1,8,{4}1,1/8,
{8}6h[8:4],5,4,3,{4}2-6[8:1],2/8,
{8}7h[8:4],5,4,3,{4}2-5[8:1],2/1,
{8}8h[8:4],5,4,3,{2}2p1[4:1],
{16}8,7,6,5,8,7,6,5,{4}8-5[8:1],8/2,
{16}1,6,6,1,7,7,1,8,{4}1/8,1/8,
{8}2h[8:4],4,5,6,{4}7-4[8:1],7/1,
{8}2h[8:4],4,5,6,{2}7v4[8:1]*-5[8:1],
{8}1h[8:1],3h[8:1],5h[8:1],7h[8:1],1-5[8:1],,,,
{8}8h[8:1],6h[8:1],4h[8:1],2h[8:1],{16}7,8,7,8,6,8,5,8,
{8}4h[8:1],6h[8:1],8h[8:1],2h[8:1],4-8[8:1],,,,
{8}5h[8:1],3h[8:1],1h[8:1],7h[8:1],{16}5,6,5,6,5,7,5,8,
{16}5h[256:1],4,3,2,1h[256:1],8,7,6,{4}5-1[8:1],5,
{8}7h[8:1],6h[8:1],5h[8:1],4h[8:1],{16}8,4,8,4,7,3,7,3,
{8}6h[8:1],5h[8:1],4h[8:1],3h[8:1],2-6[8:1],,,,
{8}2h[8:1],4h[8:1],5h[8:1],7h[8:1],{16}1,6,2,5,3,4,2,5,
{8}1h[8:1],8<4[8:1],4qq8[8:3]*pp8[8:3],,,,,,
{8}1,1/7,2/6,3/5,{16}4/6,3,2,1,4,3,2,1,
{8}8h[8:1],1>5[8:1],5pp1[8:3]*qq1[8:3],,,,,,
{8}8,8/2,7/3,6/4,{16}5/3,6,7,8,5,6,7,8,
{16}5h[256:1],4,3,2,5,4,3,2,{4}1h[4:1]/7,8,
{8}1,2/8,3/7,4/6,{16}3,7,2,6,1,5,8,4,
{8}8,1/7,2/6,3/5,4-8[8:1]/6,,,,
{8}5h[8:1],7h[8:1],1h[8:1],3h[8:1],4-8b[8:1],,,,
{16}1-5[8:1]/7,2,3-8[8:1],,{8}1,3,{8}6-1[8:1],2-5[8:1],6,2,
{8}7-3[8:1],8,1>5[8:1],8,{16}1/8,7,6,,{8}3/7,2/6,
{8}1-5[8:1]/5h[8:1],{16}2,2,{8}1/3,4h[8:1],6,7/3,8/4,1-5[8:1]/5h[8:1],
{16}8,8,7/1,,{8}6h[8:1],4,3,2/6,1/5,8/4,
{16}1,6,2,5,{8}3-8[8:1],2,{8}7v4[8:1]/3,6,7/1,2,
{8}2h[8:1],{16}3,4,{8}1/5,6,7/3,2,1/5,6,
{16}7,3,7,3,{8}8-4[8:1],7,{8}2-5[8:1]/8,1,7/2,6,
{8}6h[8:1]/1,{16}2,3,{8}4-8[8:1]/5,3,4/5-1[8:1],6,3,3,
{16}8-4[8:1]/2,7,6-1[8:1],,{8}8,6,{8}3-8[8:1],7-4[8:1],3,7,
{8}2-6[8:1],1,8<4[8:1],1,{16}8/1,2,3,,{8}6/2,7/3,
{8}8-4[8:1]/4h[8:1],{16}7,6,{8}8/5,5h[8:1],3,2/6,1/5,8-4[8:1]/4h[8:1],
{16}1,2,3/8,,{8}3h[8:1],5,6,7/3,8/4,1/5,
{16}8,7,3,4,{8}6v1[8:1],7,{8}2-5[8:1]/6,3,2/8,7,
{8}7h[8:1],{16}6,5,{8}8/4,7,2/6,3,8/4,7,
{16}1,2,6,5,{8}1-5[8:1],2,{8}7-4[8:1]/1,8,2/7,2,
{8}3h[256:1]/5h[256:1],3h[256:1]/5h[256:1],2h[256:1]/6h[256:1],2h[256:1]/6h[256:1],7-3[8:1]/1-5[8:1],,7b/1b,,
{16}4,4,4,4,4,4,4,4,4bh[8:2],,
{8},1,{32}1,8,7,6,{8}5h[8:1]/1-5[8:1],1,6,7h[8:1],1b>4[8:1],6,7,8h[8:1],
{8}1-5[8:1],8,7,6h[8:1],1b-4[8:1],5,5,{32}5,6,7,8,
{8}1h[8:1],6>3[8:1],6,7,8b-4[8:1],,,,
{16}1,1,1,1,1,1,1,1,{8}1bh[8:2],,7-4[8:1],7,
{8}1-5[8:1],1,8-3[8:1],8,2b-5[8:1]*-6[8:1],,,,
{8}8-4[8:1],8,1,2h[8:1],8b<5[8:1],3,2,1h[8:1],
{8}8-4[8:1],1,2,3h[8:1],7b-3[8:1]*-5[8:1],,,,
{8}4>1[8:1],5,6,7,8hb[8:2],1,1,{32}1,2,3,4,{8}5h[8:1]/8-4[8:1],7,3,3,2h[8:1]/8b<5[8:1],,3,2,
{8}8-4[8:1]/1h[8:1],,1,2,8b-5[8:1]/3h[8:1],,4,{32}4,3,2,1,
{8}8h[8:1],3-7[8:1],3,2,1b>5[8:1],,,,
{16}8,8,8,8,8,8,8,8,{8}8bh[8:2],,2-5[8:1],3,
{8}8-4[8:1],7,1-6[8:1],2,7b-4[8:1]*q3[8:1],,,,
{8}1-5[8:1],2,6,7,1b>4[8:1]/8h[8:1],,7,7,
{8}1-5[8:1]/6h[8:1],,7,8,2b-4[8:1]/1-5[8:1],,,,
{16}2,7,1,8,2,7,1,8,{8}2b,1/2-4[8:1],1/2,{32}1/2,8,7,6,
{8}5h[8:1],,1v4[8:1]/7v4[8:1],2/6,1b/7b,,2/6,3/7,
{8}8-4[8:1]/4,8/4,3,2,1/5,1-3[8:1]/5,7,{32}8/1,7,6,5,
{8}4h[8:1],,2-6[8:1]/8-4[8:1],4/6,2b/8b,,3/7,3/7,
{16}8,1,7,2,8,1,7,2,{8}8b,8/7-5[8:1],8/7,{32}8/7,1,2,3,
{8}4h[8:1],,8q5[8:1]/2pp4[8:1],4/5,8b/2b,,7/3,6/2,
{8}1p5[8:1]/5,1/5,6,7,8/4,8q4[8:1]/4,3,2,
{2}1h[2:1],{2}5w1[8:1],
{16}3,3,1,1,7,7,5,5,{8}3h[8:1],1h[8:1],7h[8:1],5h[8:1],
{24}3,2,1,8,7,6,3,2,1,8,7,6,{8}1bh[4:1]/5-1[8:1],,5,,
{16}6,6,8,8,2,2,4,4,{8}6h[8:1],8h[8:1],2h[8:1],4h[8:1],
{24}6,7,8,1,2,3,6,7,8,1,2,3,{8}8bh[4:1]/4-8[8:1],,4,,
{16}2,1,4,7,2,1,4,7,{8}3h[8:1],1h[8:1],7h[8:1],5h[8:1],
{24}3,4,5,6,7,8,3,4,5,6,7,8,{8}3bh[4:1]/1-5[8:1],,1,,
{16}7,1,4,3,7,1,4,3,{8}6h[8:1],8h[8:1],2h[8:1],4h[8:1],
{24}6,5,4,3,2,1,6-2[8:1],5,4,3,2,1,{8}6b/8b-4b[8:1],,8b,,
{24}3h[256:1],7,3,7,3,7,3,7,3,7,3,7,{8}2b-6[8:1],8-4[8:1],2,8,
{24}7,8,1,2,3,4,7,8,1,2,3,4,{8}1h[4:1]/5b-1b[8:1],,5,,
{24}6h[256:1],2,6,2,6,2,6,2,6,2,6,2,{8}7b-3[8:1],1-5[8:1],7,1,
{24}2,1,8,7,6,5,2,1,8,7,6,5,{8}8h[4:1]/4b-8b[8:1],,4,,
{24}1h[256:1],6,1,6,1,6,1,6,1,6,1,6,{8}2b-5[8:1],8-4[8:1],2,8,
{24}2b,1,8,7,6,5,7b,8,1,2,3,4,{8}1h[4:1]/5b-1b[8:1],,5,,
{24}8h[256:1],3,8,3,8,3,8,3,8,3,8,3,{8}7b-4b[8:1],1b-5b[8:1],7b,1b,
{24}7,8,1,2,3,4,2,1,8,7,6,5,{8}8/4-8[8:1],,,,
{2}7h[4:6]/1h[4:6],,,,
{2}2h[4:6]/5h[4:6],,,,
{2}4h[4:6]/6h[4:6],,,,
{2}7h[4:6]/3h[4:6],,,,
{1}1w5[4:7],
E
