&title=ロマンチシズム
&artist=Mrs. GREEN APPLE
&first=0.01
&des=Mr. BLUE ROSE
&des_5=Mr. BLUE ROSE
&lv_5=13
&inote_5=(125.5){4},{8},,,,,,6h[16:5],
5,,E3,5h[16:5],4,,E3,
6h[16:5],5,,E3,5h[8:1],4h[8:1],{16}6,6,2,2,
{8}8h[8:1],1,2h[8:1],1,7h[8:1],5,3h[8:1],5,
{2}7qq8b[16:5]/3-1[8:1],{32}1x-5[8:1],2x,{16}3x,,,{4}5/1,
{8}7b/8b,{16}6,5,{8}6,3,1/2>5[8:1],3,2/1,6,
8/7,{16}6,5,{8}6,3,2/1,{16}7,8,{8}7<4[8:1],2,
7/8,1,3/4,8,5/6h[8:1],5h[8:1],4h[8:1],3h[8:1],
8,{16}2,1,3,3,7,7,{8}1-6[8:1]*-4[8:1],1,,,{2}7h[4:1]/5-3[8:1],
{4}1h[8:1]/5-3[8:1],B2,
{8}4xh[4:1]/1xqq2[8:3],,,,,4,3,6,
{2}7h[4:1]/5>3[8:1],{4}1h[8:1]/5>3[8:1],B2,
{8}1xh[4:1]/4x<8[4:1],,,,,5,6,3,
{2}2h[4:1]/4-6[8:1],{4}8h[8:1]/4-6[8:1],B7,
{8}5xh[4:1]/8xpp7[8:3],,,,,5,6,3,
{2}2h[4:1]/4<6[8:1],{4}8h[8:1]/4<6[8:1],B7,
{8}8xh[4:1]/5xqq4[4:1],,,,,6,4,8,
{32}E6f/2q3<2[2:3],E5,{16}E4,{1},{4},,,{8},{4}5h[8:1]/E4,
5h[8:1]/E3,5h[8:1]/E2,5h[8:1]/E1,
{8}2/6,2,3/7,3,{2}8b/4b-8[8:1],
{8}1b/7b,6,4/3-1[32:3],7,4/3,6,4/3-1[32:3],7,
3/1-5[8:1],6,7/1,8,7/4h[8:1],{16}6,6,{8}2q6[8:1],1,
2/8<3[16:3],1,5/8,2,1h[8:1],E4,5h[8:1],E8,
3bh[8:1],{16}7,5,{8}6bh[8:1],{16}4,5,{8}2bh[8:1],{16}4,3,1b,1,4,4,
{8}7bh[8:1],8,6/5<8[8:1],7,5/4,{16}2,2,{8}4-1[8:1],3,
4/5-8[8:1],6,2/5,3,{4}8b<5[8:1]/4b>1[8:1],8/4qq5pp4b[16:13],
E1,E1,E1,E1,
3b/C,8b/C,{8}2-5[8:1]/6-1[8:1],7/3,{4}6/2,
{8}4/8-5[8:1],4/8,,,6/2-5[8:1],2/6,,,8/4,
6,1,4b/2b,,5/7h[8:1],{16}2,1,{8}2,
3/5,7,1,2b/8b,,5/6h[8:1],{16}3,4,{8}3,
{16}7/8,,,4/6,,,{8}1pp2[16:3]/5pp6[16:3],,,,,5/1>4[8:1],
5/1,,,3/7<4[8:1],7/3,,,2/5,
3,7,5b/8b,,4/2h[8:1],{16}7,8,{8}7,
6/2,1,5,3b/7b,,5/6h[8:1],{16}3,4,{8}3,
{16}2b/1b,,,4b/6b,,,{8}1b/5bp4[4:1],,,,,{2}1h[1:1]/E5f/B5/B4,
{16}5,,,7,,,{8}8,
{2}8h[1:1],{16}2,,,4,,,{8}5,
{2}5h[1:1],{16}1,,,7,,,{8}6,
{16}6h[2:1],,,3,,,{8}2,{4}2h[4:1],{16}8,8,{8}1,
{2}7/5qq8[2:1],{16}7,,,6,,,{8}5,
{2}1/5qq8[2:1],{16}1,,,2,,,{8}3,
{2}1/3V52-6[16:7],{16}1,,,8,,,{8}7,
7/5,6/4,5/3,4/2,{4}1/8-5[8:1],{48}E2f,B2,B3,E4,,,,,,,,,{4}6h[4:3]/E5,
E5,{2}8x-2[8:1],
{4}2h[4:3]/E5,E5,{2}8x-6[8:1],
{4}6h[4:3]/E1,E1,{2}5x-3[8:1],
{4}2/4h[4:1],5h[4:1],{8}D8f,D4f,D6f,D2f,
7bx<4[8:1],7,2,2,{16}5-8[8:1],8,{8}5,2,2,
3bx<6[8:1],3,7,7,{16}5-2[8:1],1,{8}5,7,7,
6/8,1/6,2/6,3/6,4/8,7/4,6/4,5/4,
6/2,{16}3,4,{8}2,8,5/7,{16}6,5,{8}7,1,
2/4,{16}3,4,{8}2,8,{16}4x-8[8:1],6x,2x,8x,{4}4x,
{8}1b/7b,{16}6,2,{8}4/3x,{16}7,2,{8}4/3x,{16}6,2,{8}4/3x,{16}7,2,
{8}3x/1>4[8:1],6,7/1,8,7/5h[8:1],{16}6,6,{8}2q6[8:1],1,
2/8p4[8:1],1,2/8,1,2/8,{16}7,4,{8}6/5x,{16}8,4,
{8}5bx/6bh[8:1],{16}2,4,{8}3bh[8:1],{16}8,5,{8}6bh[8:1],{16}8,4,3b,3,7,7,
{8}1bh[8:1],5,3/4>1[8:1],2,4/5,{16}7,7,{8}5-2[8:1],6,
5/4-6[8:1],3,7/4,8,{4}1b<6[8:1]/5b>2[8:1],1/5pp4qq5b[16:13],
E1,E1,E1,E1,
{32}3b/E5,B6,{16}A7,{32},,,,8b/E5,B3,{16}A2,,,{8}2-5[8:1]/6-1[8:1],7/3,{4}6/2,
{8}4/8-5[8:1],4/8h[8:1],,,6/2-5[8:1],6/2h[8:1],,,7/4,
8,1,{32}2b/6b,E3f,E4,E5,,,,,{8}8h[8:1],{16}2,1,{8}2,
3/7,5,1,{32}2b/6b,E3f,E4,E5,,,,,{8}7h[8:1],{16}3,4,{8}3,
{16}7/8,,,4/6,,,{8}1pp2[16:3]/5pp6[16:3],,,,,5/1>4[8:1],
5/1h[8:1],,,3/7<4[8:1],3/7h[8:1],,,2/5,
1,8,{32}7b/3b,E7f,E6,E5,,,,,{8}1h[8:1],{16}7,8,{8}7,
6/1,2,8,{32}7b/3b,E7f,E6,E5,,,,,{8}2h[8:1],{16}6,5,{8}6,
{16}2b/1b,,,4b/6b,,,{8}5b/1bv4[8:1]*v6[8:1],
E
