&title=Anhedonia [FULL VER]
&artist=A_hisa
&first=0
&des=HL
&lv_5=15+
&inote_5=(180)
{1},,,,,,,,B1,B2,B3,B4,B5,
{2}B6,1,B7,2,B8,3,B1,4,B2,5,B6,6,B7,7,B8,8,
{4}1,2,3,4,5>2[4:1],,8,7,6,5,4,3,2<7[4:1],,4h[2:1],,
{4}6,7,8,1,2-6[4:1],,8h[2:1],,6,5,4,3,2-4[4:1],,6-4[4:1],,
{4}1,2,5,6,7-2[4:1],,4,3,2,1,5,6,7-1[4:1],,3-1[4:1],,
{4}5,5,4,3,2pp5[2:1],,,,8,8,7,6,5-3[4:1],,2-6[4:1],,7bpp3[2:3],,,,,,,,
{4}4bw8[4:5],,,,,,,,1,2,3h[2:1],,4h[2:1],,5,6h[2:1],1,2,3h[2:1],,6h[2:1],,8h[2:1],,
5h[2:1],,3h[2:1],,4h[2:1],,5h[2:1],,6h[4:3],,,8,6h[4:1],,4h[4:1],,Ch[2:1],,,,
{8}2,,2,,,1h[8:1],8,,8,7,6,5,{16}3,4,{8}3,12,,
{8}3,,3,,,2h[8:1],1,,1h[8:1],,2,3,{16}4,5,4,5,{8}3,,
{8}4,,4,,,3h[8:1],2,,2,1,8,7,{16}6,5,{8}6,78,,
{8}5,,5,,,4h[8:1],3,,3h[8:1],,4,5,{16}6,5,6,5,47,,,,
{8}6,,6,,,5h[8:1],4,,4,3,2,1,{16}8,1,{8}8,12,,
{8}7,,7,,,6h[8:1],5,,3,4,5,6,{16}7,8,7,8,7,,,,
{8}8,,8,,,7h[8:1],6,,6,5,4,3,{16}2,1,{8}2,78,,
{8}1,,1,,,8h[8:1],7,,7,6,5,4,{16}2,3,2,,8,1,8,1,
{8}8-2[8:1],,4-2[8:1],,,8,8,7,7,6,6,{16}4,5,{8}4,3,12,,
{8}1-7[8:1],,5-7[8:1],,,1,1,2,2,3,3,{16}5,4,{8}5,6,87,,
{8}1,2,3,1,2,3,,45,,1,2,3,4,5,67,,
{8}1,2,1,2,3,,3,2,3,4,6,7,6,7,{16}1-5[8:1],8,1,8,{8}1,
{8},7,6,,45,6,,B1,B5,B2,B6,B3,B7,C,,4-1[8:1],,4,5-8[8:1],,5,4,,
{16}B2,B3,B4,,B8,B7,B6,,{8}3,7,4,8,65,,2,3,,45,3,,{16}8,7,6,,{8}1,5,2,6,3,7,
{8}3v6[8:1],,3,7v2[8:1],,7,5,,{16}E8,B7,B6,,B2,B3,E4,,{8}5,4,5,4,
{8}2-4[8:1]/7,,2,8-6[8:1],,8,1-5[8:1],,1,8,7,6,5,4,3,2,
{8}1-3[8:1]/8,,1,7-5[8:1],,7,4,,{16}E4,E3,E2,,E6,E7,E8,,{8},18,27,36,
{8}5-2[8:1],,5,4x-7[8:1],,4x,5-1[8:1],,5,3,6,2,7,1,6,2,
{8}34,,56,6,,34,3,,{16}E1,B1,B2,,E7,B6,B5,,1,8,1,8,1,8,1,8,
{8}1-3[8:1],,1,5-7[8:1],,5,4,3,2-8[8:1],,2,6-4[8:1],,6,1,2,{8}3-8[8:1],,3,6-1[8:1],,6,4,
{8}5,6-3[8:1],,6,4-8[8:1],,4,7,6,5-7[8:1],,5,1-5[8:1],,1,6,6,3-7[8:1],,3,6-1[8:1],,6,5,4,
{8}3-5[8:1],,3,6-2[8:1],,6,5,4,{6}1b/3b,8xb/6xb,2xb/4xb,7xb/5xb,{12}8/1,2,3,4,{8}5h[8:3],,,7h[8:3],,,1,,
{8}5,4,3,2,1,{16}8,7,6,5,4,3,{8}2h[4:1],,1,8h[8:3],,,7,,{8}4,5,6,7,{16}1,8,1,,8,1,8,,
{8}27,,34,2,,4,5,6,{6}E8,E5,E2,{8},2-5[8:1],1,2,{12}8,7,6,2,3,4,
{8}6,65,7,8,1-4[8:1],,1,8h[4:1],{16},,,1,2,3,4,5,{8}6-8[8:1],,6,2-4[8:1],,2,,5,6h[4:1],,7,8h[4:1],,1,2,3,
{16}5x,5x,4x,4x,5x,,2,,2,1,,7,8,,1,,{6}8b/2b,1xb/3xb,2xb/4xb,{8},4,{16}6,5,6,,{8}1-3[8:1],,1,8h[4:1],,,5,5,
{16}2,3,4,8,7,6,2,3,4,5,6,7,8,1,2,3,45,6,7,8,12,,{8}3,6,45,7,4,56,{16}2,4,,4,5,,5,7,,7,1,8,1,8,
{8}1>5[4:1],,5<8[4:1],,8>3[4:1],,3<6[4:1],,{16}6,,,,,,8,1,{8}8,7,6,5,4h[4:1],,{16},,5,4,{8}5,1,2,3,4b>5[8:3],,,,,,8,,2h[2:1],,,,4h[2:1],,,,{6}5h[6:1],6h[6:1],
7h[6:1],2h[6:1],3h[6:1],4h[6:1],{8}5b<4[8:3],,,,,,
{16}1,8,2,7,{8}1xb>8[8:3],,,,,,{16}8x,1,7,2,{8}8h[4:1],,,{16}B4,B5,E6,,,B1,,,B3,,E4,,,E8,,,A1,,,A3,,,
{8}5,6,7h[4:1],,1,2,3h[4:1],,4,5,6h[4:1],,5,4,3h[4:1],,2b,,
{6}1,18,1,6,65,6,3,34,3,7,78,7,{8}3h[8:5]/6h[8:5],,,,,,
{12}5/4,6/3,7/2,{8}8h[8:6]/1h[8:6],,,,,,,,
{8}2-4[4:1],,4-6[4:1],,6-8[4:1],,8z4[2:1],,,,,,3,2,1,8,
{8}7-4[8:1],,78,1,2-5[8:1],,12,8,7-5[8:1],,78,1,2h[4:1],,1,{32}8x,7x,6x,5x,
{8}4x<8[4:1],,8>4[4:1],,4,,,{32}1x,2x,3x,4x,
{8}5x-2<1[4:1],,1-6[4:1],,
{6}4,5,5,{12}3-8[8:1],,,{8}3,{12}5-1[8:1],,,{8}5,2,3,{6}3,2h[5:2],3,{8},,
{16}6,5,6,5,{8}6,2,3,4,2,34,7,6,5,7,6,54,3,2,1b-3[8:1],,
{8}1,8,7,6,7,6,5,4,{16}8,7,6,5,{8}4,3,2,1,1-5[8:1]/8-4[8:1],,
{8}1b/8b,,6,6,78,18,12,3,{16}5b,6,7,8,4,3,2,1,84,,26,5,4,38,1,2,
3,45,6,7,{8}1xb/2xb,3xb/4xb,5xb/6xb,7xb/8xb,{16}1,2,3,5b/4b,,,4,5,4,,6,3,6,,2,7,2,8,1,8,
{8}1V35[4:1],,5V71[4:1],,1>4[4:1],,4<7[4:1],,7,,,{16}1,8,{8}1,2,3,3,4h[4:1]/5h[4:1],,,{16}7,8,{8}7,7,6,6,{16}4b/5b,3,2,1,8b,7,6,5,1,2,3,4,8x/5x,7,6,5,
{16}2-4[8:1],1,2,1,{8}2,5,{16}6-8[8:1],5,6,5,{8}6,1,{6}2h[6:1],3h[6:1],4h[6:1],
5h[6:1],6h[6:1],7h[6:1],{16}1-3[8:1],8,1,8,{8}1,4,{16}6-8[8:1],5,6,5,6,,{32}1x,2x,3x,4x,{8}5x,5x,6,6,{16}7,8,7,,1h[64:1],2h[64:1],3h[64:1],4h[64:1],5h[8:3],{16},,,,,B8,B1,E2,,,B5,,,B7,,E8,,,E4,,,A5,,,A7,,,
{8}8,1,2h[4:1],,4,5,6h[4:1],,8,1,2h[4:1],,1,8,7h[4:1],,6,,
{6}5b-7[135#12:1],4,5xb,2b-4[135#12:1],1,2xb,7b-1[135#12:1],6,7xb,{8}3,,34,,{8}7h[8:5]/2h[8:5],,,,,,,{16}B2/B1/B8/B7,B6/B3,{4}E5,C,{16}E5,E4,E3,E2,E1,E8,E7,E6,{8}1x,2,3,4h[4:1],,
7,6,5h[4:1],,1,2,3,4,5,6,7,8h[4:1],,1,8h[4:2],,,,,1,5,2,6,3,7,4,8,{16}2,1,2,1,{8}2,3,
3,4,45,,{16}7,8,7,8,{8}7,6,6,5,45,,{16}3-8[8:1],4,3,4,{8}3,,7,6,54,,
{16}E6,B6,B7,E8,{8}Ch[4:1],,,,{16}8xb<1[8:3],1xb,8xb,1xb,{8}8xb,,,,,{16}7,8,7,8,
{8}7,2,3,2,{16}4,5,4,5,{8}4,6,2,6,1,{16}7,8,7,8,7,,1,8,{8}1,2,{16}3-1[8:1],4,3,4,3,
,,,6-8[8:1],5,6,5,{8}6,2,5,3,6,{16}4,5,{8}4,36,{16}7-5[8:1],8,7,8,{8}7,4,3,4,
{16}2-5[8:1],1,2,1,2,,7,,{8}6-3[8:1],,6,2-7[8:1],,2,5<2[4:1],,5,,,
{16}3,4,{8}3,5,6,78,{16}E2,B2,B3,E4,E6,B6,B7,E8,{8}1,1,2,2,E5/B4/B5,8,7,6,E1/B8/B1,2,3,4,{16}E7/B7/B6,B8,B1,B2,{32}B3,E4,A4,,A5,E6,B6,,{6}B8,A2,A4,
{8}A5,A6,A7,A8,{16}1,2,3,45,6,7,81,,2,1,2,1,3,8,3,8,4,7,4,7,56,,,,
7,8,7,8,6,1,6,1,5,2,5,2,43,,,,4,5,4,5,3,6,3,6,2,7,2,7,1,8,1,8,1,2x,3x,4x/8,7x,6x/2,3x,4x/7,6x,5x/1,2x,3x/8,7x,6x,5,4,{1}3b<5v2b[4:15]/7b>1v6b[4:15],,,,,,,,
{8}B2,B3,B4,B5,B6,B7,,,B1,B2,B3,B4,B5,B6,,,B8,B1,B2,B3,B4,B5,,,B7,B8,B1,B2,B3,B4,,,
B6,B7,B8,B1,B2,B3,,,B5,B6,B7,B8,B1,B2,,,B4,B5,B6,B7,B8,B1,,,B3,B4,B5,B6,B7,B8,,,
{8}6x/B6,B7,B8,B1,B2,B3,,,5x/B5,B6,B7,B8,B1,B2,,,4x/B4,B5,B6,B7,B8,B1,,,3x/B3,B4,B5,B6,B7,B8,,,
2x/B2,B3,B4,B5,B6,B7,,,1x/B1,B2,B3,B4,B5,B6,,,8x/B8,B1,B2,B3,B4,B5,,,B7,B8,B1,,
{8}4,,,,{4}4,3,4,5,4,,6,6,6,7,6,5,6,,8,,2,1,2,3,{96}2,1,,{32},,,,,,,{4},
{96}3,4,,{32},,,,,,,{4},{24}5,,,,,{12}E3,E4,E5,E6,{24},,,,,{4}8,7h[4:1],,8,,
{4}4,3,5,6,2/7pp5[2:1],,2,2,3,4,6,5,2qq4[2:1]/7,,B7,,3,6,3,6,45,{96}2,3,,{32},,,,,,,{96}8,1,,{32},,,,,,,{4}67,4,3,5,6,4,3,2,1-5[4:1],8,7,1,2,1/8v7[4:1],,
{4}1,2,8,7,6,{96}5,4,,{32},,,,,,,{4}3h[2:1],,6h[2:1],,
{4}2,7,1,8,{96}2-5[8:1],1,,{32},,,,,,,{4},{96}7-4[8:1],8,,{32},,,,,,,{4},
{24}2,,,,,{12}E4,E5,E6,E7,{24},,,,,{4}8,1h[4:1],,8,,
{4}4,3,5,6,5/4v3[4:1],,
{4}5,6,4,3,2,{96}1,8,,{32},,,,,,,{4}7h[2:1],,2h[2:1],,
{4}6,3,5,4,56,{96}7,8,,{32},,,,,,,{96}1,2,,{32},,,,,,,{4}34,
{4}5,5,6,6,7,7,8,8h[180:74],(180.5){32},,,,,1xb,,,
(180){4},,,{8}2,1,{4}2,3,4,5,{8}4-1[2:1],,,,,,,,1p3[2:1]/8q6[2:1],,,,,,,,
{4}5,6,5,{8}3,4,{4}3,2,1,8,7pp2[2:1],,,,2pp7[2:1]/3qq6[2:1],,,,
{4}4h[2:1],,3,2,1h[2:1],,8,7,6h[2:1],,5h[2:1],,4h[2:1],,3-6[4:1],,
{4}8h[2:1],,{8}1h[4:1],,2h[4:1],,3,,4,,3,,2,,{1}1w5[4:5],,
{4}5-1[2:1],,4,,{8}8,7,6,5,{16}1,2,3,4,{8}5-1[4:1],,{4}5,4,{8}3,5,3,6,27,2,1,1,8,8,7,,{6}18,,
B8,B6,B4,,{4}1,{8}3-1[4:1],4,3,,7>2[2:1],,7,,,,,,{4}1,{8}2,2,5,5,3,6,45,,
{4}4>1[4:1],,5<8[4:1],,{8}1,7,2,6,3,5,4,5,3-8[4:1]/6-1[4:1],,,,,,
2,3,{6}4h[6:1],5h[6:1],6h[6:1],{4}7>2[4:1],,3<6[4:1],,8-4>1-5b<8b[1:1],,1,,4b,,
{8}2,,3,34,,6,56,,4,4,5,5,{16}4,5,4,5,4,5,4,5,
{8}4,,4h[4:1],,,5,45,4,4,5,6,47,{16}6,5,{8}6,47,,
{8}6,7,6h[4:1],,,4h[8:1],5,4,3,2h[8:1],4,5,{16}6,5,{8}6,45,,
{8}1,2,1h[4:1],,,8,8,1,1,8,7,16,{16}7,8,{8}7,16,,
{8}5,4,5h[4:1],,4h[8:1],5,6,7,8h[8:1],4,3,2,{16}2,1,{8}2,{16}8,1,8,1,
{8}8,,8h[4:1],,,1>3[8:1],8,7,6<8[8:1],5,4,3,{16}2,1,{8}2,83,,
{8}7,8,7h[4:1],,,8,7,7,8,8,1,72,{16}1,8,{8}1,72,,
{8}2,1,2h[4:1],,,6>4[8:1],7,8,1<7[8:1],2,3,4,{16}5,4,{8}5,36,,
{8}8,1,8h[4:1],,,1,8,1,1,2,2,83,{16}2,1,2,,4,5,6,7,
{8}8-3[8:1],,8,4-1[8:1],,4,6-1[8:1],,6,5,4,3,2,1,8,7,
{8}5-7[8:1]/4,,5,3-1[8:1],,3,8,,{16}E8,E7,E6,,E2,E3,E4,,{8}81,72,63,54,
{8}4-8[8:1],,4,6x-2[8:1],,6,5x-1[8:1],,5,6,7,8,4,3,2,1,
{8}8-6[8:1],,8,1-3[8:1],,1,5h[4:1],,{16}B2,B3,B4,,B8,B7,B6,,{8}3,8,4,7,
{8}65,,12,3,3,45,6,6,{16}1,2,3,,{8}8,4,7,3,6,2,
{8}6-4>3[8:1],,6,2-8<7[8:1],,2,5,,{16}E2,B2,B3,,B7,B6,E6,,{8}4,5x/6x,7x/8x,1x/2x,
{8}7-5[8:1],,7,1-3[8:1],,1,8-4[8:1],,8,1,2,3,4,5,6,7,{1}8/Ch[2:3],
{8},,,,,1b,2b,3b,{16}6,5,6,5,6,,5x,4,3,2,1,,8,1,8,,2,1,8,7,6,,1,8,
{16}1,8,1,,6h[8:1],,,,3,4,3,5,3,,4x/5x,,5,6,7,8,{8}21,34,
{16}5/6,,7,8,7,8,7,,1,2,3,4,1,2,3,4,1b-5[8:1],,1,8,1,,8,7,6h[4:1],,,,,,
{16}3/7,48,15,2,3,4,5,6,7,8,12,,2,1,2,,8h[16:5],,5,4,3,2,1,8,7,6,15,84,73,62,
15,4,3,2,1-5[8:1],48,37,26,1/5,,,,{12}3h[12:1]/4hb[12:1],,1hb[12:1]/2h[12:1],,{6}7h[12:1]/8hb[12:1],6-2[135#8:1],5,4,3-7[135#8:1],4,5,6,7x/8,12,
{8}3-7[8:1],6-2[8:1],3,6,{16}1,8,7,6,5,48,37,26,{6}1xb>4[135#8:1]/5xb<8[135#8:1],2,1xb/5xb,{8},,2/6,2/6,3/7,3/7,4>1b[8:1]/8<5b[8:1],,4b/8b,,
{16}E1,B1,B2,E3,A4/E5/B4,,,A6/E7/B6,,,A8/E1/B8,,{16}2,3,4,5,1,2,3,4,1,5,2,6,3,7,4,8,{12}5-1[12:1],,6,5,6,,8-4[12:1],,7,8,7,,{16}26,,1,5,2,6,3,7,4,8,5,1,2xb-6[8:1]/6xb[8:1],1xb/5xb,8xb/4xb,7xb/3xb,{4}6xb/2xb,,
{4}4h[4:1],,3h[4:1],,2h[4:1],,{8}1,8,7,2,1,8,7,,{16}5/6,,7,8,{8}7,1,2,3,4-1[8:1],,
{4}5h[4:1],,6h[4:1],,{8}7h[4:1],8,1,2,3,4,5,6,78,{16}1,8,{8}1,7,6-1[8:1],5,6,,
{8}1x-3[8:1],8-4[8:1],1,8,5-1[8:1],6-8[8:1],5,6,1x,2,3,1,2-6[8:1],3,4,,8,7,6,5,
1h[4:1],8,7,6,1,2,3,1,2,3,4,5,4h[4:1],5,6,7,8,1,2,3,45,3,45,6,45,3,45,6,
{8}2-7[8:1],6-3[8:1],2,6,1x-4[8:1],5x-8[8:1],1,5,4,4,3,3,2,2,1,1,78,6,78,1h[4:2],
{8}3,4,5,6,B8/B1,,B3,B6,B2,B7,{16}A1,D2,A2,D3,{8}E5,E6,E7,E8,B1,B2,B3,B4,
{8}E6,E8,E2,E4,E7,E1,E3,E5,A1,A3,A5,A7,{12}B3,B4,B5,{8}B6,C/B8/B1,
{8}B5/B4,,B2,B7,B3,B6,{16}A4,D4,A3,D3,{8}E1,E8,E7,E6,B4,B3,B2,B1,
{8}E8,E6,E4,E2,E7,E5,E3,E1,{16}A4,D4,A3,D3,A2/A6,D2/D6,A1/A5,D1/D5,
{16}A8,D8,A7,D7,A6/A2,D6/D2,A5/A1,D5/D1,
{8}Cf,,2hx[8:1],,{16}4,3,{8}4,2h[8:1],,18,7,6h[8:1],,{16}4,5,{8}4,6h[8:1],,
{8}4,3,2,1,8,7,6,5,34,2,34,5,{12}B7,B8,B1,{8}B2,3x,45,6,45,3,{16}1,2,{8}3,
{8}8,8,7,7,6,6,{16}1,2,{8}3,5,6,45,3,45,6,{16}1,2,{8}3,7,8,{16}1,2,3,4,5,6,7,8,15,,,,
{8},,{16}2,1,3,8,4,7,5,6,5,6,4,7,3,8,2,1,8,7,6,5,4,3,2,1,4,3,2,1,8,7,6,5,
{16}3,4,5,6,3,4,5,6,2,3,4,5,2,3,4,5,1,2,3,4,5,6,7,8,1x/D2,2x/D3,3x/D4,4x/D5,5x/D6,6x/D7,7x/D8,8x/D1,Cf/D2/1x,,,,{8}5,4,{6}A3/E3/D3,E2/B2/B1,A7/D8/E8,A5/D5/E5,A3/E4/B3,A2/D2/E2,A1/E1/D1,E8/B8/B7,A5/D6/E6,{8}Chf[1:1],,3pp6<3[8:6],3,,,,,,,,,
{8}3xb/4xb,5xb/6xb,7b/8b,1b/2b,
{16}3,4,3,4,3,,5,6,7,,1,2,3,,6,,4,3,5,2,6,1,7,,
{16}1,6,2,5,{8}3-7b[8:1]/4-8b[8:1],25,3xb/4xb,,{16}4,3,2,1,{6}87,56,34,
{16}12,,7x,4,7,4,7,,2,1,2,,8,7,6,5,4b-8[8:1],,3,4x,3,,1,2,3,4,
{16}5,6,7,8,1,2,34,5,6,7,8,1,2,3,45,6,7,8,1x-3[8:1],,1,,1b,,,,5x,6,7,8,1x,2,3,4,5,6,7,
8,1b/5b,,,,1,8,1,8,1,,6,,{16}4,4,4,4,{2}Ch[1:8],E1,
{2}E2,E3,E4,E5,E6,E7,E8,A1,A2,A3,A4,A5,A6,A7,{16}1x,2,3,4,5,6,7,8,1,2,3,4,5,6,7,8,
{16}1x/5x,4,3,2,1,8,7,6,{8}4,5,4,5,{16}2,1,2,1,2,1,2,,{8}8b,7,6,5,{16}3,4,3,4,2,5,2,5,
{16}1,2,3,4,5,6,7,8,15,4,3,2,1,8,7,6,5,8,7,6,5,4,3,2,{8}18,2,7,3,6,4,5,4,Ch[4:5],,,,,,,,8w4[60#32:1],,,,,,{32}8b,B8,B6/B2/C,A5/D5/A4/D4/A3,,,,,
{16}2b,,3,4,3,4,3,,7b,,6,5,6,5,6,,1xb,2,3,7xb,6,5,2xb,3,4xb,8,7,6,45,,
{16}2b,,7xb-5[8:1],8,7,8,7,,4,,3,,2-4[8:1],1,2,1,2xb,,6xb-8[8:1],5,6,5,6,,,,
{12}1xb/5xb,2,3xb,4/8,5,6xb,7xbqq5[8:1]/3xbpp5[8:1],,,,,,
{8}7-3[8:1],3V58[8:1],7,,2b,3b,4b,5b,,18,27,36,{16}4,5,4,5,4,,5-1[8:1],4,5,4,5,,,,2,,
{16}3,4,3,2,3,,6,5,6,7,6,,{8}2b-5[8:1],5bV31pp3b[8:2],2b,,,,{32}7h[128:1],6h[128:1],5h[128:1],4h[128:1],{16},,
{32}2h[128:1],3h[128:1],4h[128:1],5h[128:1],,,,,8xb,7,6h[12:1],,,2xb,3,4h[8:1],,,,8xb,7,6,5,,2xb,3,4,5h[6:1],,,,,
{8}7-3[8:1],3V16p4b[8:5],{6}7,1x,2x,{8}3hx[4:1],{16},,,,2-6[145#12:1],,6V84-2b[160#28:10],,,2,,,,,{6}1xh[64:1],8xh[64:1],7xh[64:1],{8}6-2<4b[4:1],,,,3-7<5[4:1],7,3,,
{8}8xb-4[8:1],7xb,6xb,5xb,{16}3,4x,3,4x,3,,25,,6,5,6,5,6,,7-3[8:1],8,7,6,7,,2,,2,,
{4}Ch[4:3]/E8,E2,E4,E6,{8}2-4[8:1],1,2,7-5[8:1],8,7,4b,,6<8[8:1],5,6,3>1[8:1],4,3,8b,,7-3[8:1],8,7,2-6[8:1],1,2,7b,,5v2[8:1],4,5,1-4[8:1],8,1,5b,,
{8}2>5[4:1],,5<8[4:1],,8>3[4:1],,3<6[4:1],,6<1[4:1],,1>4[4:1],,4,,7,,{24}8xb,1x/7x,2x/6x,3x/5x,4x,,,,,1xb,8x/2x,7x/3x,6x/4x,5x,,,,,,,,1xb/8xb,27,36,4h[4:1]/5h[4:1],,,{16},,,,,,{8}6,78,12,34,
{16}6b,5,6,7,6,,4b,5,4,5,4,,7,8,7,,2b,1,2,1,2,,6b,5,6,7,6,,2,3,2,,7b,8,7,8,7,,3b,4,3,2,3,,7,6,7,,3b,4,3,4,3,,7b,6,7,8,7,,2,1,2,,6b,5,7,5,8,,2b,1,2,3,2,,7,8,7,,3b,4,3,2,3,,6b,5,6,7,6,,1,8,1,,4xb,5,3,6,4xb,5,3,6,2xb,7,1,8,2xb,7,3,6,4xb,5,3,7,4xb,8,5,1,2x/6x,1x/5x,8x/4x,7x/3x,62,15,84,73,{4}2xb/6xb,
,2,3,{6}3,4,5,6,,6,6,5,4,3,,3,3,2,1,8,7,6,{8}5,,,,5,,6,,8,7,8,7,,7,6,5,
{8}4w8[45#8:1],,,,,,,,,,,,,,
{32}1xb-5b[8:1]/8xb-4b[8:1],2x/7x,3x/6x,4x/5x,,,,,{16}1xb>4[8:1]/8xb<5[8:1],,,,,,,,
{16}3b,,2,1,2,1,2,,5xb,6,7,3xb,2,1,6xb,7,8xb,4,3,2,81,,
{16}6b,,3xb-1[8:1],4,3,4,3,,8,,7xb,,6-8[8:1],5,6,5,6,,2xb-4[8:1],1,2,1,2,,,,
{12}5xb/1xb,6,7xb,8/4,1,2xb,3xbpp5[8:1]/7xbqq5[8:1],,,,,,
{8}3xb-7[8:1],7xbV14[8:1],3xb,,6b,7xb,8xb,1b,,3xb/4xb,2xb/5xb,1xb/6xb,{16}7b,8,7,8,7,,1b-5[8:1],8,1,8,1,,,,6,,
{16}7b,8,7,6,7,,2b,1,2,3x,2,,{16}4xb/5xb,3xb/6xb,2xb/7xb,1xb/8xb,
{16}B1,B2,B3,B4,B5,B6,B7,B8,A1/1x,A2,A3,A4,A5,A6,A7,A8,B1/1x,B2,B3,B4,B5,B6,B7,B8,A1/1x,A2,A3,A4,A5,A6,A7,A8,B1/1x,B2,B3,B4,B5,B6,B7,B8,B1/1x,B2,B3,B4,B5,B6,B7,B8,4x,3x,2x,1x,8x,7x,6x,5x,4x/D4,3x/D3,2x/D2,1x/D1,8x/D8,7x/D7,6x/D6,5x,B1/1x,B2,B3,B4,B5,B6,B7,B8,B1/1x,B2,B3,B4,B5,B6,B7,B8,A1/1x,A2,A3,A4,A5,A6,A7,A8,B1/1x,B2,B3,B4,B5,B6,B7,B8,4x/1x,3x,2x,1x,8x,7x,6x,5x,4x/8x,3x,2x,1x,8x,7x,6x,5x,
{16}A8/E1/B8/E8,E2,E3,E4,A8/E1/B8/E8,E7,E6,E5,A1/E1/B1/E2,E3,E4,E5,A1/E1/B1/E2,E8,E7,E6,Cf/A1/A2/A3/A4/E1/E2/E3/E4/E5/B1/B2/B3/B4,,,,,,,,{8}2,7,3,6,45,,,,4,5,3,6,45,,,,
{8}3,6,2,7,{4}18,23,45,67,1qq4[2:1]/8pp5[2:1],,,,{8}2h[8:3],,,3h[8:3],,,4h[8:2],,
5,6,7,8,1,2,3,4,4,3,2,1,8,7,6,5h[8:5],,,,,Cf,
