&title=(初稿)好きな谱面発表ドラゴン
&artist=ンバヂ
&first=0.03
&des=KOL19
&wholebpm=160
&shortid=121852
&genre=宴会場
&cabinet=SD
&version=maimai DX PRiSM PLUS
&ChartConverter=Neskol
&ChartConvertTool=MaichartConverter
&ChartConvertToolVersion=1.0.8.0
&smsg=See https://github.com/Neskol/MaichartConverter for updates
&lv_7=!!14!!
&inote_7=(160){4},,,,
{4}E2,E3,E4,B2f,
{4}1>5[4:1],,1,1,
{4}1>5[4:1],,1,1pp4[4:3],
{1},
{4}1>5[4:1],,1,1,
{4}1>5[4:1],,1,1,
{4}1>5[4:1],,1,1pp5[4:3],
{1},{8}8,,1,,
||烈华
{8}1>4[8:1],8<5[8:1],1,8,1-5[8:1],8-4[8:1],1,8,{16}1<6[8:1],2,3,4,1b,,,,2<7[8:1],3,4,5,2b,,,,
{24}3,5,3,5,,,{8}2b/6b,,3b-7[8:1]/5b-1[8:1],,5b/3b>5[8:4],,,,
||Verdelite
3,3,
{16}2,,1,2,3,45,6,7,8b<5[8:1]/4b>1[8:1],,,,8bv3[8:1]/4bv7[8:1],,,,
4b/8b,,,,8x,1,2,3,48,51,62,73,84,,4b/8b,,
||L'épilogue
{8}6h[4:3]/3p6[8:1],,,,7^2[8:1],,,,
||GOAT!
{4}8p3[4:1],{8}3,2,{8}1,8,7q5[16:3]/3q1[16:3],,
7q1[2:1],,,,,,,,
||ALBIDA
{16}1,,2,,2-6[8:1],1,,5,2,,8,,1/7,,2,,
{16}4/6,,7,,7-3[8:1],8,,4,7,,1,,2/8,,7,,
||Milky
Way
Galaxy
(SIHanatsuka_Remix)
{8}5<4[1:1],,,,{32}D2,E2,,,{8},,,4q7[4:3],,A3,,A2,,A1,,
||Summer
is
over
{8}1>4[8:1],{16}5,5,{8}1-6[8:1],{16}7,7,{8}1>4[8:1],{16}5,5,
||Tachyon
{4}8-4[12:1],{16}1h[4:1]/8,,,,
{16}
3,2,4,3,5,4,6,5,7,6-2b[16:1],,,
{4}6b/8b,
{16},,,,2h[8:1]/4h[8:1],,,,2h[8:1]/4h[8:1],,,,
{16}5,,5,4,3,,,,2h[8:1]/4h[8:1],,,,2h[8:1]/4h[8:1],,,,
{16}5,,5,4,3,,,,2h[8:1]/4h[8:1],,,,2h[8:1]/4h[8:1],,,,
{16}5,,5,4,3,,,,3h[8:1]/4h[8:1],,,,3h[8:1]/4h[8:1],,,,
{16}5,,5,4,3,,,,2h[8:1]/4h[8:1],,,,2h[8:1]/4h[8:1],,,,
{16}5,,5,4,3,,,,2h[8:1]/4h[8:1],,,,2h[8:1]/4h[8:1],,,,
{16}5,,5,4,3,,,,2h[8:1]/4h[8:1],,,,3h[8:1]/6h[8:1],,,,
||GASHATT
{8}
8/4h[8:1],8,
{8}
1<6[8:1],5>2[8:1],1,5,
{24}
6,7,8,1,2,3,
{8}
45,
||Visterhv
{16}7-5[8:1],,8-4[8:1],,7,,8,,1-5[8:1],,2>8b[8:4],,1b,,2x,,,,,,,,
{8}5,6,7,8,
||Skytaker
{4}7-3[8:1],
{8}7xqq8[8:3],{4},{16}3bx,2bx,{4}1bx,
||Diomedes
{16}3,5,3,5,1,6,1,6,
{48}2b,3,4,5,,,,,,2b,3,4,5,,,,,,2b,3,4,5,,,{8}8b,5/3,{16}2qq5[4:1],6,1,7,
{8}2b,,,,
||Crazy
Audiophile
{16}4x,6,5,6,3,4,3,7,6,8V26-4[16:9],2,3,
{4}1V73-5[16:7],,,{8},
||Cuvism³
{8},6,
{16}5,5,{8}5,4/6,{16}3,1,2,1,{8}4>1[8:1],8,4,,
||牧神笛吹きて
{8}5-1[32:3],7b,
{16},,2,3,{4}4/8<4[4:1],
{16}3b,2b,{8}1b,
{4}8xV27-3-6-4b[4:2],,,,
||流
{8}2>4[8:1]/6>4[8:1],4>8[4:1]*<8[4:1],
{4},,,1>4[8:1]/8<5[8:1],,
||縁
{16}2h[8:1]/6b,,,7b/3h[8:1],,,8b/4h[8:1],,,1b/5h[16:3],,,{32}2b,1,8,7,6,5,4,3,
{8}1-5[8:1],,{16}1b,,,,
||OUTER
PLANET
{8}2b/6b,4b/7b^4[8:1],,{32}3b,2b,1b,,
||Cyclone
Joker
{8},,7b-2[8:11]*-2[8:11],,,,,,,,,,,
{16}3!-6[8:1],,,,3b,,,,
||Farewell
to
Marrakech
7,,5h[4:1],,7,,
{16}
8,6,8,2,8,3,5,3,1,4,8,5,{32}7,6,5,4,3,2,1,8,
{16}
7/3b,,,,
||Corruption
{32}4b,3,2,1,8,,,,6b>7[4:1],7,8,1,2,3,4,5,
{4}4h[8:3],
{8},,3,4,2h[4:1],,4,5,
{8}3h[8:1]/5h[8:1],,2h[8:1]/4h[8:1],,1h[8:1]/3h[8:1],,8>5[4:3],8h[8:9],
{4},,,2?z6[122.5#16:3]/7?s3[122.5#16:3],
{8},,,,1/2,,2/4,2/4,
{8},3,3,4,2h[4:1],,4,5,
{8}3h[8:1]/5h[8:1],,2h[8:1]/4h[8:1],,1h[8:1]/3h[8:1],,8-5-1-4-2[4:3],8h[8:7],
{1},
||Crystal
Gravity
{16}
2b-5[8:1]/7b-4[8:1],,,,7b/2b-8[8:1],,,,2bz6[4:1]/7bs3[4:1],,,,,,,,
,,,,
||Light
up
my
LOVE!!
{8}1>4[8:1],,1<6[8:1],,1>3[8:1],3qq4[4:1],5h[4:0],,6,6,
||男装女形
{16}5,,3,4,2,,1/7,,6v7[8:1],5,7<2[16:3],,3,,1h[16:6],,
{16},,8,7,6b,,,,
||Like
a
Fool
(80){8}4q1[8:1]/6<1[8:1],1>4[8:1],6/4<6[12:1],,,
||I
want
You
(160){16}7,6,7,6,7h,6h,7h[16:1],6h[16:1],8x-4[8:1],,,,8/4,,,,
||Att
{32}2bx,3bx,4bx,5bx,6hx[384:1],5hx[384:1],4hx[384:1],3hx[384:1],2hx[384:1],,,,,,,,
||Purgatorium
{24}1,2,3,45,6,7,3,2,1,87,6,5,1,4,1,4,1,4,2-6[8:1],5,2,5,2,5,2b,,,,,,
||Golden
Palms
{24}8bx,7,6,1/5h[8:1],,,7bx,6,5,4h[8:1]/8,,,2bx,3,4,5h[8:1]/1,,,1bx,2,3,4h[8:1]/8,,,
||Cansei
de
S
NIK
{16}1>4[8:1],,,,
7<4[8:1]/1p4[8:1],,,,7qq8[12:4],,,,7/3>8[12:1],,,,3qq4[12:4],,,,
3/7<4[12:1],,,,7V51[8:1]*V52[8:1],,,,5,,,,38,,7,,
||Danza
Panpan
{32}2,1,8,7,6,5,4,3,{16}8,8,5,6,{8}4<8[8:1],3,
{4}2b,
||Aurora
{24}12,8-6-2-4[24:8]/3,7-1-5-3[24:7]/4,65,,,{16},,,,,,,,
||Dynitikós
{8}
1-3-5<6[8:2],1,1/6-8>4[8:2],7V13[8:1],,,
{24}5xh[8:1],,,D7/A6/2h[8:2],D8,D1,D2,D3,D4,D5,D6,D7,
||Kakera
{8}7bx-4[8:1]/3bx-8[8:1],,7>4[4:1]/3,,4>7[4:1],5,6,,
||Labyrinth
of
Tears
{16}6x,5x,{8}4xh[16:1],{16}E3/B3,E2,E1,E8,
A5/B5,A6,A7,,
||Get
Higher
{16}2,8,5,6,2,4,8,6,
{16}1x,5hx[16:2],,2,4,7,5,1,
||Imaginary
Friends
{24}8b,,,,D5,D4,B3,D3,
{12}D2/D1,
{24},,,,E1,D8,B7,D7,
||Take
you
to
the
Heaven
{12}D6/D5,,,
{16}
6,5,7,4,5,8,6,5,7,4,5,8,6,5,7,4,
{16}
8,2,3,1,4,3,8,2,3,1,4,3,
||不可説不可説転
8,7,6,5,
{32}2,3,4,5,6,7,8,1,
{24}4,2,4,2,4,2,
{16}5b-1[8:1],,,,5b/7b,,,,
||熱情のサパデアード
{24}8x,7,6,5,4x,4x,1,2,3,4,5x,5x,{16}8-4[8:1],2,6,4b,,,,,
||TΗΞ
ƧΞVΞИƧ
Ͻ∅DΞ
2,2,4,3,8,1,6,6,
5,7,3,4,1,2,5,6,
3,4,8,7,5,5,6,2,
8,1,4,3,6,5,7h[4:2],,
||飛べないぼくと鳴かない黒猫
(240){24}2b,E3,B3,B4,B5,B6,B7,B8,B1,B2,B3,E4,{16}A4,5,6,7,8,1,2,3,
{8}4xq5-7>2[4:3]/5hx[4:1],,,,
(160)6hx[4:2],
,,,
||Fractus
(160){16}1b,5,7,5,
{16}7,5,1b,5,3,5,3,5,1b,5,7,5,7,5,1b,5,
||Calvados
Queen
(240){12}1x,8,7,6,5,4,
{16}8x,7,6,5,4,3,2,1,
{12}48,,7x/5x,7/5-1[8:1],,,
||mesmera
(160){4}35,{32}7<4[32:3],8<4[32:3],,,,,,,,,,,,,,,{16}1,7,2,6,
3,5,4,5,{24}3,4,5,6,,,1,2,3,4-8[8:1],,,,,,8,7,6,
{4}5-2[8:1],5/6-1[8:1],{2}3V57[4:1]/6V48[4:1],
||メイデー、メイビーネイビー
(feat.
そらこ)
(160)
{8},7v2[8:1]/1v6[8:1],{4}6/2,
{8},8,7/1,6v3[8:1]/2v5[8:1],{4}5/3,
||CHAOS
CONTROL
{8},3h[384:1],4h[384:1],5h[384:1],6h[384:1],,
{4}8-4[1000#4:1],
||終わりなき物語
{16}2>5[8:1],,,6,2,,7,,
3h[8:1]/8,,{24}6,5,6,{16}4,,7,7,
{16}1h[24:5],,{24}7,6,5,{16}4/2h[24:5],,{24}5,6,7,
{16}8<5[8:1]/3>8[8:1],,,,8b/3b,,,,
||We
doubt
you
(120){12}2xpp1[4:1]/4,2,,8,7,6,
{28}5x-8[8:1],8,7,6,5,4,3,
{12}2x,,1,1h[4:1],,7,7h[12:1],5h[12:1],6h[12:1],2h[12:1],4h[12:1],3,3x/5,,87,1/6^1[10:1],25,,
4,3,2,1x^4[10:1]/8x,,,{24}7x,6,{12}5,,
{8}8-6-1-5-2-4[2:1],7-5-8-4-1-3b[1:1],
{4},,
{8},,,,,,
{16}E2f/A1,,E7f,E8f,,B4/E5f,,E1f,E3f/B2/B3/A2/A3/D3,E8f,E7f,E5f/B4/B5/A4/A5/D5,,,,Cf/A2/B2/A3/B3/A6/B6/A7/B7/E3/E7,
{8},Cf/A2/B2/A3/B3/A6/B6/A7/B7/E3/E7,,Cf/A2/B2/A3/B3/A6/B6/A7/B7/E3/E7,A5/B5/C/A4/B4/A3/B3/A2/B2/E5/E4f/E3,
,,{32},E8f/A7/A8/B7/B8/C/D1/D7,,,{8},,,
{64}A2/A3/A4/A5/A6/B2/B3/B4/B5/B6/D3/D4/D5/D6/E3f/E4/E5/E6,,,,,,
A2/A3/A4/A5/A6/B2/B3/B4/B5/B6/D3/D4/D5/D6/E3/E4f/E5/E6,,,,,,
A2/A3/A4/A5/A6/B2/B3/B4/B5/B6/D3/D4/D5/D6/E3/E4/E5f/E6,,,,,,,
A2/A3/A4/A5/A6/B2/B3/B4/B5/B6/D3/D4/D5/D6/E3/E4/E5/E6f,,,,,,,
A2/A3/A4/A5/A6/B2/B3/B4/B5/B6/D3/D4/D5/D6/E3/E4/E5f/E6,,,,,,,
A2/A3/A4/A5/A6/B2/B3/B4/B5/B6/D3/D4/D5/D6/E3/E4f/E5/E6,,,,,,
{64}A2/A3/A4/A5/A6/B2/B3/B4/B5/B6/D3/D4/D5/D6/E3f/E4/E5/E6,,,,,,
A2/A3/A4/A5/A6/B2/B3/B4/B5/B6/D3/D4/D5/D6/E3/E4f/E5/E6,,,,,,
A2/A3/A4/A5/A6/B2/B3/B4/B5/B6/D3/D4/D5/D6/E3/E4/E5f/E6,,,,,,,
A2/A3/A4/A5/A6/B2/B3/B4/B5/B6/D3/D4/D5/D6/E3/E4/E5/E6f,,,,,,,
A2/A3/A4/A5/A6/B2/B3/B4/B5/B6/D3/D4/D5/D6/E3/E4/E5f/E6,,,,,,,
A2/A3/A4/A5/A6/B2/B3/B4/B5/B6/D3/D4/D5/D6/E3/E4f/E5/E6,,,,,,
{64}A2/A3/A4/A5/A6/B2/B3/B4/B5/B6/D3/D4/D5/D6/E3f/E4/E5/E6,,,,,,
A2/A3/A4/A5/A6/B2/B3/B4/B5/B6/D3/D4/D5/D6/E3/E4f/E5/E6,,,,,,
A2/A3/A4/A5/A6/B2/B3/B4/B5/B6/D3/D4/D5/D6/E3/E4/E5f/E6,,,,,,,
A2/A3/A4/A5/A6/B2/B3/B4/B5/B6/D3/D4/D5/D6/E3/E4/E5/E6f,,,,,,,
A2/A3/A4/A5/A6/B2/B3/B4/B5/B6/D3/D4/D5/D6/E3/E4/E5f/E6,,,,,,,
A2/A3/A4/A5/A6/B2/B3/B4/B5/B6/D3/D4/D5/D6/E3/E4f/E5/E6,,,,,,
{64}A2/A3/A4/A5/A6/B2/B3/B4/B5/B6/D3/D4/D5/D6/E3f/E4/E5/E6,,,,,,
,
Chf[64:3],
{8},,,,,
