&title=Oracle
&artist=DJ Noriken
&first=0.02
&des=Chika
&lv_5=14+
&inote_5=(205)
{1},,
{2}2bh[4:15]/6b,,B7,,B6,,B5,,7h[1:2],,B4,,3q5[4:3],,8<5[8:1]b,{32}A4,A3,A2,A1,A8,A7,A6,A5,{4}A4/Cf,
{4}3b/5bpp1[2:1],,,Cf,2bqq5[2:1]/8b,,,Cf,7bpp4[2:1]/5b,,,Cf,{4}3bqq8[2:1]/5b,,5b,6b,
{8}7bh[4:1]/8bh[4:1],,,5bh[4:1]/6bV84[4:1],,,Cf,,{8}3bh[4:1]/5bh[4:1],,,1bh[4:1]/2bV48[4:1],,,Cf,,
{8}7b<4[8:1],,8,1b>4[8:1],,8,7bqq4[4:3],,Cf,,{4},,,
{8}2hx[4:1],4,5,2hx[4:1],4,5,6,3,7hx[4:1],5,4,7hx[4:1],{16}B4,B3,B2,B1,B5,B6,B7,B8,
{8}2hx[4:1],4,5,2hx[4:1],4,5,6,3,7hx[4:1],5,4,7hx[4:1],4,4,3,3,
{8}2x/4x,2,35,3,4x/6x,4,57,5,8x/6x,86,75,{16}4x,6x,4x,6x,{8}4x,35,35,
{16}2,6,2,6,1,7,1,7,{32}1,2,3,4,5,6,7,8,1,2,3,4,5,6,7,8,{4}1/5<4[4:1],
{4},,7-4[8:1]/3<7[4:1],7b>3[4:1]/3b,5xv8[8:1],5x,{8}4>1[8:1],5,6,7<4[8:1],8,1,2b>5[8:1],1,2,8,7-3[8:1],5,7V51[8:1],,74,,2<7[8:1],3,4,5>2[8:1],6,7,8b,1,
{4}2x-5[8:1]/6>2[4:1],2b<6[4:1]/6b,4xv1[8:1],4x,
{8}5<8[8:1],4,3,2>5[8:1],1,8,7b<4[8:1],8,7,1,2b>5[8:1],,1,8b<5[8:1],,1,2bq4[4:1],,Cf,,,,3-1[8:1]/7-1[8:1],,7-4[8:1]/3V57[4:1],,
{4}7bV13[4:1]/3b,5xv8[8:1],5x,{8}4<7[8:1],3,2,1>4[8:1],8,7,
{12}6bx,6x,6x,3bx,3x,3x,{8}7-3[8:1],2,7V51[8:1],,74,,2<7[8:1],3,4,5,6,7,{12}8x/4,7x,6x,1x/5x,2x,3x,
{32}4xh[8:1]/6xh[8:1],,,,,2xh[8:1]/8xh[8:1],,,,,3xh[8:1]/5xh[8:1],,,,,,{8}1x/7x-4[8:1],,8,1,2-5[8:1],1,2,8-5[8:1],1,8,2,3,
{8}4b>1[8:1],,5,6b<1[8:1],,5,4pp1[8:3],,Cf,,,,{16}A8,A7,A6,A5,A1,A2,A3,A4,
{8}7x/5x,6,5,46,5,4,53,4,24,3,4,35,4,5,46,5,{16}4,5,4,5,3,6,3,6,2,7,2,7,{32}1,2,3,4,5,6,7,8,{4}1bh[4:3],,,{8}7,6,
{8}53,2,46,7,53,2,46,7,42,1,57,8,42,1,57,8,53,1,46,8,53,1,46,8,34,1,65,8,34,34,25,25,
{8}1V35[8:1]/6,,17,8,1V75[8:1],,14,3,2-6[8:1],6,2>5[8:1],5-1[8:1],2,6,7,,2>5[8:1]/8<5[8:1],,2-8[8:1]/8,,2-4[8:1],6,2,7,5-1[8:1]/6-2[8:1],,56,,38,38,{32}4,5,6,7,8,1,2,3,
{8}46,2,3b/5b,7,46,2,3b/5b,7,46,1,3b/5b,7,46,1,3b/5b,7,34,1,4b/5b,7,34,1,4b/5b,7,34,1,5b/6b,8,56,56,7b/4b,74,8<3[8:1]/3,,82,1,8>5[8:1],,86,7,8-3[8:1],3,8<5[8:1],5-1[8:1],8,1,2,3,
{8}4x,4xh[4:1],{32}8b,7,6,5,,3,2,1,{8}8x,8xh[4:1],{32}4b,3,2,1,,7,6,5,{1}4bs8[2:1]/7bz3[2:1],
{16}3b,4,3,4,3,,6b,5,6,5,6,,2b,1,2,1,2,,7b,8,7,8,7,,1b-5[8:1],8,2,7,1,,,,6b,5,6,5,6,,3b,4,3,4,3,,7b,8,7,8,7b-3[16:1],,,5b-2[16:1],,,1b,,1b,8,7,6,1b/5b,,,,
{16}2bh[4:1],,,3bh[4:1],,,4,4,7bh[4:1],,,6bh[4:1],,,5,5,2bh[4:1],,,3bh[4:1],,,4,4,6b,5,6,5,7,,,,
{16}8bh[8:1]/7bh[8:1],,,3bh[8:1]/4bh[8:1],,,2b/1b,,6bh[8:1]/5bh[8:1],,,2bh[8:1]/1bh[8:1],,,38,47,{1}5bpp2[2:1]/6bqq1[2:1],
{1}1>8[4:13],E3,E5,E7,
{4}E1/C,E2/C,E3/C,{8}E4/C,E5,{4}E1/C,E8/C,{16}E7/C,,,B6,{8}E6/C,E5,{4}A1/C,A2/C,A3/C,{8}A4/C,B4,{4}Ch[2:1],,{16}A1,A2,A3,A4,A8,A7,A6,A5,
{4}2x/4x,25,26,{8}27,2,{4}27,37,{8}47,,57,7,{4}75,46,35,{8}24,2,24,,B2/E2,B6/E6,B3/E4,B7/E8,B2/B3,B6/B7,
{8}15,1,26,2,37,3,48,4,15,5,48,4,37,3,26,2,{16}1,8,1,8,2,7,2,7,{32}2,3,4,5,6,7,8,1,2,3,4,5,6,7,8,1,{1}2pp5[2:1]/6pp1[2:1],
{4}4-2-5-1[2:1]/7,7,7,7,{8}7x,6,5,4,{12}3x,2,1,8,7,6,{16}5x,4,3,2,1,8,7,6,{32}5,4,3,2,1,8,7,6,5,4,3,2,1,8,7,6,{4}5bV38[4:1]/3bV58[4:1],,,{16}1-6[8:1]/5,26,37,48,
{8}1b-4[8:1]/5,,1b-6[8:1]/7,,1b-4[8:1]/3,,1b/8-6[8:1],7,8b/5-1[8:1],,5b/2-4[8:1],,2b/8-4[8:1],,8b>3[8:1]/2,1,8b<5[8:1]/5,,8b>3[8:1]/4,,8b<5[8:1]/5,,2-6[8:1]/8b,1,2b/7>2[8:1]*<4[8:1],,7b,,3b/5b,3b/5b,2b/6b,2b/6b,
{8}1b-3[8:1]/7,,1b/4-8[8:1],,4b/7-5[8:1],,1>4[8:1]/7b,8,1b<6[8:1]/6,,1b/4,,1b/5b,{16}15,26,{8}3b-8[8:1]/7b-4[8:1],48,3b/7b,,1b/5b,15,2b/6b,{16}26,37,{8}4b/8b>3[8:1]*<5[8:1],,8b,,4b/6b,4b/6b,2-5[8:1],7,2,7,
{8}4bx<7[8:1]/6,35,4b>1[8:1]/2,,4b<7[8:1]/6,,4b/2-8[8:1],3,6-4[8:1]/2b,,3/6b,,6b/2b,{16}62,73,{8}8b<5[8:1]/4b>1[8:1],15,8b-4[8:1]/4b,,8b/5qq3[8:1]*pp7[8:1],,5b,,2b/8b-4[8:1],1b/7b,8b/6b,,3b/5b,3b/5b,2-6[8:1],8-4[8:1],2>5[8:1],8,
{8}2b-8[8:1],,2b/7-3[8:1],,4-6[8:1]/7b,,4b/8-4[8:1],1,8b<5[8:1]*>3[8:1]/3,,8b,,{16}2bx/7bx,,27,36,{8}4b-7[8:1]/5b-2[8:1],36,4b/5b,,1b-3[8:1],8b-4[8:1],1b-5[8:1],8b-6[8:1],1bw5[2:1]b,8b,1b,,{2},
{16}4,5,4,5,3b/6,,3,4,2,,45,,6,5,7,,3,4,3,4,2b,,6,5,6,,74,,3,4,3,,8,1,8,1,7b,,4,5,3,,26,,5,4,6,,3,4,3,4,2b,,7,5,6,,35,,2,4,3,5,4,6,5,7,8b,,2,1,2,,37,,2,3,4,5,1,2,3,4,1b,,7,8,7,,62,,7,6,5,4,8b,7b,6b,5b,8bV64[8:1],,,,1b,,2b,,{8}3bqq8[4:1],,5b,,6b,,{16}1b,8,1,8,
{32}1b>4[8:1],2>5[8:1],3<6[8:1],,,,,,{4}1b,
{8}1b,2b,3b,{16}54,,3,4,2,,6,5,6,5,7b,,3,4,3,,25,,6,5,6,,1,8,1,8,2b,,5,4,6,,73,,4,5,3,,6,5,6,5,7b,,2,4,3,,64,,7,5,6,4,5,3,4,2,1b,,7,8,7,,62,,7,6,5,4,8,7,6,5,8b,,2,1,2,,37,,2-6[8:1],,1,1,2,,8,,5b,,2,1,2,,34,,7b,8,7,,21,,21,38,{1}4bqq1[2:1]/7bqq4[2:1],
{16}3b,4,2,5,1,,6b,5,7,4,8,,3b,4,2,6,8,,6b,5,7,3,1,,2b-5[8:1],7,4,5,2,,,,
{32}8b,7,6h[8:1],,,,2b,3,4h[8:1],,,,7b,6,5h[8:1],,,,1b,2,3h[8:1],,,,7b,6,5h[8:1],,2b,,3,,{1}4b>4[2:1]*<4[2:1]/5b,2b,
