&title=DA'AT -The First Seeker of Souls-
&artist=水野健治 VS 大国奏音
&first=0.18
&des=ST'EZ -Respect for the WEC2024-
&lv_5=14+
&inote_5=(111.11)
{4},,,,
{64}1b,2h/8x,37,4x/6h,5h[16:15],,,,{8},,,,,,,
{8}3h[4:2],,,,1h[4:2],,,,
{8}8h[1:1],,E4,,E5,,E6,,
{8}7h[4:7],,B8,B7,B6,B5,B4,B3,
{8}1h[4:3],,,,,,,,
{8}5h[4:3]/3,,2,,1h[4:5],,,,
{8}6h[4:1],,,,7h[4:1],,,,
{24}8,,1,8,1,8,1,8,1,8,1,8,1,8,1,8,1,8,1,,,1h[8:7],,,
{8}Ch[8:6],,,,,,,,
(222)
{16}2b/8b,,,,2/7,3,4,5,6,5,4,3,
{16}2b/8b,,,,2/7,6,5,4,3,4,5,6,
{16}1b/7b,,,,6/8,1,2,3,4,3,2,1,
{16}8b/7b,,,,1/2,8,7,6,5,6,7,8,
{16}1b/3b,,,,3/8,2,1,8,7,8,1,2,
{16}3b/5b,,,,4/6,7,8,1,2,1,8,7,
{16}6b/3b,,,,4/7,3,2,1,8,1,2,3,
{16}4b/6b,,,,3/5,6,7,8,1,8,7,6,
{16}2b/5b,,,,,,3/7,,,,,,2/6,5x,4-8[8:1],,
{16},,,,,,3/7,,,,2/6,,,,1/7,,
{16},,E1,,E7,,B2,,B5,,A1,,A7,,E3,,
{16}E6,A5,E2,B2,E7,B7,B3,A3,D8,E8,B1,E2,D7,A6,E4,A3,
{1}5bxw1b[40.5#48:1],,
{16}1/8-4[12:1],,,,2-5[12:1]/8,,,,6-1[12:1]/2,,,,4x-8[12:1]/6,,,,
{16}7-2[12:1]/4,,,,7-4[12:1]/3-8[12:1],,,,3/7,,,,1x,,1x,,
{16}7-4[12:1]/2,,,,3-7[12:1]/7,,,,6-1[12:1]/3,,,,2-5[12:1]/6,,,,
{16}7-3[12:1]/2-8[12:1],,,,7/2,,,,5,,5,,5x,4x/6x,3x/7x,,
{16}3-8[12:1]/7,,,,6-3[12:1]/3,,,,1-5[12:1]/6,,,,7-3[12:1]/1-7[12:1],,,,
{16}1/7,,,,1/6,2,3,4,5/7,,4x,6x,4x,,35,,
{16}2v5[12:1]/6v1[12:1],,,,2/6,,,,4v2[12:1]/8v6[12:1],,,,4/8,,,,
{16}3/7,,2,3,4/5,6,7,8,2,3,4,5,1,8,7,6,
{16}2>5[8:1]/5,,2,,5,6,7,8x,1x<6[8:1],,1x,,4,3,2,1x,
{16}8xV24[8:1],,8x,,5,6,7,8x,1xV75[8:1],,1x,,4,3,2,1x,
{16}8x,,1,,2/8,,7,,5/6,,4,,3/5,,2,,
{16}1/7,,6,,1/7,,2,,3/5,,6,,3/5,,2,,
{16}1/4-8[8:1],,4,,1,2,3,4x,5x-1[8:1],,5x,,8,7,6,5x,
{16}4x-7[8:1],,4x,,1,2,3,4x,5x-2[8:1],,5x,,8,7,6,5x,
{16}4x,,,,1/5,,3/7,,,,2x,5x,2x,,46,,
{16}3,7,3,7,2,8,2,8,{32}E2,E3,E4,E5,E6,E7,E8,E1,E2,E3,E4,E5,E6,E7,E8,E1,
{1}Cf/E2,,
{16}5h[4:2],,,,,,,,3>7[4:2],,,,,,,,
{16}7V13[4:2],,,,,,,,5,,,,,,,,
{16}5,,,,6,,,,7<3[4:2],,,,,,,,
{16}3V57[4:2],,,,,,,,1,,,,,,,,
{16}1,,,,2,,,,3-5V71[4:3],,,,,,,,
{16}B8,,,,B6,,,,4-2V86[4:3],,,,,,,,
{16}B1,,,,B3,,,,5,,,,4h[4:1],,,,
{16}6h[4:2],,,,,,2,,2pp6[4:4],,,,,,,,
{1},
{16}5/3h[8:3],,,,6,,6,,7/4,,,,6/3,,6,,
{16}5/2,,,,5/3,,5,,6/4,,6,,7/3,,7,,
{16}8h[8:3],,,,3,,3,,4/7,,,,3/6,,3,,
{16}2/5h[4:3],,,,1,,1,,2,,2,,3,,3,,
{16}4/6,,,,4/7,,4,,4/8,,4,,4/1,,,,
{16}3/7,,7,,4/7,,7,,5/7,,7,,6/7,,,,
{16}5,6,5,6,4,5,4,5,3,6,3,6,2,7,2,7,
{24}1,2,3,4,5,6,7,8,1,2,3,4,{32}8b/5b,7,6,5,4,3,2,1,8b,7,6,5,4,3,2,1,
{16}8,,,,1/7,,,,8,,1,,2/8,,,,
{16}7/3-5[8:1],,,,3-1[8:1],,,,3/7-3[8:1],,,,7,,,,
{16}8-4[8:1],,,,2-6[8:1]/8,,,,2-4[8:1]*-8[8:1]/6,,,,2,,,,
{16}5,,B4,,6,,B3,,7,,B2,,8,,,,
{16}1-3[8:1],,,,8-4[8:1]/1,,,,8/7-5[8:1],,,,C/7,,,,
{16}2-4[8:1],,,,2/1-5[8:1],,,,1/8-6[8:1],,,,C/8,,,,
{16}4w8[8:1],,,,4,,,,5w1[8:1],,,,5,,,,
{16}7,,B4,,6,,B3,,5,,B2,,6,,,,
{16}4,5,4,5,3,6,3,6,2xh[32:1],7xh[32:1],2xh[32:1],7xh[32:1],1xh[32:1],8xh[32:1],1xh[32:1],8xh[32:1],
{16}1x-5-1b[4:1],,,,,,A5f,,,,,,,,,,
{16}8,1,8,1,7,2,7,2,6xh[32:1],3xh[32:1],6xh[32:1],3xh[32:1],5xh[32:1],4xh[32:1],5xh[32:1],4xh[32:1],
{16}5x-1-5b[4:1],,,,,,A1f,,,,,,,,,,
{1}5b>7[4:5]/7h[4:2],6h[4:2],4<2[4:5]/2h[4:2],3h[4:2],
{16}2,3,4,5,6,7,8,1,{32}2/7,6,5,4,,,,,{16}2,1,8,7,
{16}6,5,4,3,{32}2/5,6,7,8,,,,,1,2,3,4,,,,,7,6,5,4,,,,,
{16}3,4,5,6,7,8,1,2,{32}3/8,7,6,5,,,,,{16}3,2,1,8,
{16}7,6,5,4,{32}3/6,7,8,1,,,,,2,3,4,5,,,,,8,7,6,5,,,,,
{16}B1,B5,B2,B6,B3,B7,B4,B8,E4,E8,E3,E7,E2,E6,E1,E5,A1,A5,A2,A6,
{16}A3,A7,A4,A8,,,,,2xb/6xb,,2xb-6[8:1]/6xb,,,,8b/2b,,,,,,
{16},,,,6h[2:1],,,,,,,,4h[2:1],,,,,,,,
{16}1b-5[8:1],,,,1/3,,,,1-5[8:1],,,,1/7h[4:1],,,,
{16}6x-2[8:1],,,,8-4[8:1]/6,,,,8/3-7[8:1],,,,3,,,,
{16}6h[4:1],,,,1,2,3,4,6,7,8,1,5,4,3,2,
{16}8,7,6,5,1,2,3,4,5/1,6,7,8,1-5[8:1]/5,,,,
{16}1/7-3[8:1],,,,7/2-5[8:1],,,,2/8-4[8:1],,,,8/3-7[8:1],,,,
{16}3,,,,6/8,,5,,4/2,,1,,8-4[8:1],,,,
{16}8/2-5[8:1],,,,6-2[8:1]/2,,,,6/3-7[8:1],,,,3/1-6-3[4:2]*-4[8:1],,,,
{16}1b,,,,,,,,2,,,,,,,,
{16}1/6,,7,8,7,,1/6,,8,7,8,,6/1,2,3,4,
{16}2,3,4,5,3,4,5,6,2,,1/3,,8,,,,
{16}8>3[8:1]/7,,1,,{32}7x,6x,5x,4x,{16},,7<4[8:1]/8,,6,,{32}8x,1x,2x,3x,,,,,
{16}1,,2,,{32}1/2x,3x,4x,5x,{16},,{32}8/7x-3[8:1],6x,5x,4x,{16},,1/7,,,,
{16}2,8,2,8,3,7,3,7,4,3,2,1,6,7,8,1,
{16}3,8,3,8,2,7,2,7,1,2,3,4,8,7,6,5,
{16}4/3,,2,1,2,,3,,3/7,,7,,1/7,,1,,
{16}1,8,2,7,1,8,2,7,1,2,3,4,1,8,7,6,
{16}3,5,3,5,2,6,2,6,1,2,3,4,{64}A1,D2,A2,D3,A3,D4,A4,,,,,,,,,,
{16}7x,1x,7x,1x,6,2,6,2,5,6,7,8,{64}A5,D6,A6,D7,A7,D8,A8,,,,,,,,,,
{16}2x,8x,2x,8x,3x,7x,3x,7x,4,3,2,1,{64}A4,D4,A3,D3,A2,D2,A1,,,,,,,,,,
{16}6x,4x,6x,4x,7x,3x,7x,3x,8x,7x,6x,5x,{64}A8,D8,A7,D7,A6,D6,A5,,,,,,,,,,
{1}8xhb[4:3]/Cf,3xhb[4:3]/Cf,
{16}1/2,,1,,3/8,,8,,4/7,,7,,5/6,,6,,
{16}1/5,,1/5,,2/6,,2/6,,3/7,,3/7,,4/8,,4/8,,
{16}1b-5[8:1]/5,,1,,1/3b-8[8:1],,3,,3/7bv4[8:1],,7,,7/2b-6[8:1],,2xb,,
{16}2/5bp1[8:1],,5,,5/8b-4[8:1],,8,,8,,,,3/7,,1/5,2/6,
{16}3b-8[8:1]/7,,3,,3/6b-2[8:1],,6,,6/1b-6[8:1],,1,,1/7xb-3[8:1],,7xb,,
{16}7xb/4b-1[8:1],,4,,1/4,,,,8x,7x,2x,3x,7x,6x,3x,4x,
{16}7/5b,,1,,5/3b,,8,,4/6b,,2,,7b,4b,1b,,
{16}4b/8b,,1b/2b,,5b/3b,,1b/6b,,4hb[16:1]/5hb[16:1],,1hb[16:1]/3hb[16:1],,2hb[16:1]/6hb[16:1],,4hb[16:1]/8hb[16:1],,
{16}3b/7b,,2b,1b,2b,,3b/4b,,6b,4b,8b,,1b,7,1,7,
{16}2b,6,2,6,2b,6,2,6,{32}3b,4,5,6,7b,8,1,2,3b,4,5,6,7b,8b,1b,2b,
{1}3bh[4:3],
{32}1-6[8:1],,,,,,,,1,2,3,4,5,,,,1x/7x,,,,,,,,
{32}8-3[8:1],,,,,,,,8,7,6,5,4,,,,2x/8x,,,,,,,,
{32}3-8[8:1],,,,,,,,8,7,6,5,4,,,,1x/7x,,,,,,,,
{32}6-1[8:1],,,,,,,,1,2,3,4,5,,,,2x/8x,,,,,,,,
{32}2>5[8:1],,,,,,,,2/5,6,7,8,1,,,,2x/8x,,,,,,,,
{32}7<4[8:1],,,,,,,,4/7,3,2,1,8,,,,1x/7x,,,,,,,,
{32}6<1[8:1],,,,,,,,1/6,2,3,4,5,,,,4x/6x,,,,,,,,
{32}3>8[8:1],,,,,,,,3/8,7,6,5,4,,,,3x/5x,,,,,,,,
{32}2-7[8:1],,,,,,,,2/8,7,6,5,4,,,,1x/6x,,,,,,,,
{32}7-2[8:1],,,,,,,,1/7,2,3,4,5,,,,3x/8x,,,,,,,,
{32}6-3[8:1],,,,,,,,4/6,3,2,1,8,,,,2x/5x,,,,,,,,
{32}3-6[8:1],,,,,,,,5/3,6,7,8,1,,,,4x/7x,,,,,,,,
{32}4>1[32:3],,,,,,,,4/8,7,6,5,8,7,6,5,4b,,,,,,,,
{32}5<8[32:3],,,,,,,,1/5,2,3,4,1,2,3,4,5b,,,,,,,,
{32}3>8[32:3],,,,,,,,3/7,6,5,4,7,6,5,4,3b/7b,,,,,,,,
{32}6<1[32:3],,,,,,,,2/6,3,4,5,2,3,4,5,6b/2b,,,,,,,,
{16}B1/Cf/E1/B2/E2/B3/E3/B4/E4/B5/E5/B6/E6/B7/E7/B8/E8,,,,,,,,,,,,,,,,,,,,,,,,,1h[16:21],
{16},,,,,,,,,,,,,,,,,,,,
{10}8,,1,,2,,7,8,1,6,7,8,5,6,7,4,5,6,3,
{10}4,5,2,3,4,1,2,3,8,1,2-6[27#128:52]*-6[27#128:52]/7,,,,,,
{16},,,,,,,,,,,,,,
