&title=Blue Rose Ruin
&artist=世阿弥
&first=0.2
&des=Yaegaki vs Noodle
&des_5=Yaegaki vs Noodle
&lv_5=14
&inote_5=(185){4},,,,,,{2}C,
1-5[4:7],5,
7,3,
{4}1-5[4:7]*-5[4:7],5,6,4,
7,3,8,2,
1-5b[4:5],5,6,4,
7,3,{8}1-5[1:1]*-5[1:1],5,6,4,
6,4,8,2,8,2,1-5[2:1],5,
{16}4,6,3,7,2,8,1,6,{4}4b,1,
{16}6,5,{8}7,{4}1/3h[8:1],8/3h[8:1],7/3h[8:1],
{8}4/6,5/1,{4}3/4-8b[8:1],6b,1/7,
{16}3,4,{8}2,{4}8/6h[8:1],1/6h[8:1],2/6h[8:1],
{8}5/3,4/8,6/5-1b[8:1],7,{4}3b,8/2,
,1,2,3<6[16:3],
{8},8>3[16:3],,,{2}5<8[16:3],
{4}2,1,{8}2/4,5/3,{4}6/4,
7,{16}1,1,1,1,{8}1b,3,{16}5,4,{8}6,
1/7h[8:3],1,2,2,3/7h[8:3],3,4,4,
{4}5/7-4[8:1],8,{8}3,5/2,{16}5,4,{8}6,
1/7h[8:3],1,2,2,{4}7h[8:3]/3h[8:1],4h[8:1],
5/7-4[8:1],8,{8}3,5/2,{16}5,4,{8}6,
8/2h[8:3],8,7,7,6/2h[8:3],6,5,5,
{4}4/2-5[8:1],1,{8}6,4/7,4,3,
1/7,{16}8,8,{4}8-3[8:1],8/5-2[8:1],2/5,
{16}1,1,1,1,1,1,{8}1,{4}2b,{16}3-8[8:1],4,{8}2,
3/5,6,{16}7-4[8:1],8,{8}6,7/1,2,3,{16}2-5[8:1],1,
{8}3,2/8,{4}7,3/7,{16}6b-1[8:1],5b,{8}7b,
6b/4b,3b,{16}2b-5[8:1],1b,{8}3b,2b/8b,7b,6b/4b,3,
6,7/1,2,8,3/7,{16}1-6[8:1],2,{8}8,1/7,
8,{16}5-2[8:1],6,{8}4,5/3,4,7/1,2,8,
3/7,{16}1-6[8:1],2,{8}8,1/7,8,7/5,4,6,
3/7,{16}1-6[8:1],2,{8}8,1/7,8,5/3,2,4,
1/5,8/6,{4}7/A2f,{8}4b/6,{16}1-6[8:1],2,{8}8,1/7,
{16}3-6[8:1],2,{8}4,3/5,4,1,2/7,{16}8-3[8:1],7,{8}1,
8/2,{16}6-3[8:1],7,{8}5,6/4,5,2/1,{16}8-5[8:1],1,{8}7,
8/6,{16}2-5[8:1],1,{8}3,2/4,3,1,{16}7-4[8:1],8,{8}6,
7/5,3,{4}2-5[8:1]/8-5[8:1],{2}2/8,
{8},,,,,,,,7/5,
4,{4}6,1/3,4/7,
1/5,6,{8}1/4,3,2,6,
5,7,2,8,{16}1,1,1,1,1,1,1,1,
1,1,1,1,{32}2bx,3,4,5,2bx,1,8,7,2bx,3,4,5,2bx,1,8,7,2bx-6b[8:1],3,4,5,2bx,1,8,7,
{1},{4},,Cf,
7/5-8[8:1],
5/3-6[8:1],2,{8}8,7,{4}6/4-7[8:1],
4/2-5[8:1],1,8/4,{8}7,6,
{4}5/3-6[8:1],3/1-4[8:1],8,3/5-7[8:1],
5-3[8:1],2,{16}1,1,1,1,{8}1,2,
4,6,{4}2b/8b,{16}1,1,1,1,{8}1,2,
4,6,{4}2b/8b,{8}3,5,{4}7,
{8}4,6,{4}8,1b-6b[8:1],3b-8b[8:1],
5b-2b[8:1],7b,{16}1,1,1,1,{8}1,2,
2/3,2/4,2/5,2/6,{4}7/1b-6b[8:1],3b-8b[8:1],
5b-2b[8:1],7b,{16}8,8,8,8,{8}8,7,
7/6,7/5,{4}7/4,2/8b-3b[8:1],6b-1b[8:1],
4b-7b[8:1],2b,{16}8,8,8,8,{8}8,7,
7/5b,7/4b,{4}7/3b,{16}2,2,2,2,{8}2,3,
3/5b,3/6b,{4}3/7b,{16}5,5,5,5,{8}5,6,
{16}7,7,7,7,{8}7,8,{16}2,4,{8}3,7/5,8,
{16}1,1,1,1,1,1,1,1,{8}2b,4,6,8,
1,{16}3,4,{8}2,8,6,4,2,8,
{4}6,{24}4b,3,2,1,,,{8}1,1/6,5,4,
3/7,{16}8,4,{8}2,1,1,1/6,5,4,
{16}3/7,1,8,2,{4}1b,{8}1/4,6,5/2,4,
3/7,{16}5,1,{8}4,3/7,1/4,6,5/2,4,
{4}3/7,{24}5b,6,7,8,,,{8}4,7/2,{16}8,4,{8}1,
6/2,1,{16}3,8,{8}2,{16}1,1,1,1,1,1,1,1,
1,1,1,1,{32}2bx-6b[8:1],3,4,5,2bx,1,8,7,,,,,,,,,{4}1b,
1b,{8}1b,8b,,8b,,8b,
1,3/7,5,3/7,{4}1b,1b,
1b,{8}1b,8b,,8b,,8b,
1,3/7,5,3/7,{16}1,1,{8}1,{16}2,2,{8}2,
{16}3,3,{8}3,{16}4,6,5,7,6,8,{8}7,{16}1,1,{8}1,
{16}2,3,2,3,2,3,2,3,{24}2,3,2,3,2,3,2,3,2,3,2,3,
2/7,3/6,2/7,3/6,2/7,3/6,2/7,3/6,2/7,3/6,2/7,3/6,{8}Cf,Cf,Cf,Cf,
{16}1,1,1,1,{32}2bx-6b[8:1],3,4,5,2bx,1,8,7,,,,,{16}8-3[8:1],7,{8}1,8/6,
5,{16}4-7[8:1],3,{8}5,4/2,1,{16}5-2[8:1],6,{8}4,5/7,
{4}8,{24}8b,7,6,5,,,{8}4/3,{16}1-6[8:1],2,{8}8,1/3,
4,{16}5-2[8:1],6,{8}4,5/7,8,{16}4-7[8:1],3,{8}5,4/2,
{16}1,1,1,1,1,1,1,1,{8}1b,{16}3-8[8:1],4,{8}2,3/5,
6,{16}7-4[8:1],8,{8}6,7/1,3,{16}2-5[8:1],1,{8}3,2/8,
{4}6,{24}1b,2,3,4,,,{8}1,7/3,5,7/3,
{16}1,1,1,1,1,1,1,1,{32}2bx,3,4,5,2bx,1,8,7,2bx,3,4,5,2bx,1,8,7,
2bx,3,4,5,2bx,1,8,7,2bxz6b[4:5],3,4,5,2bx,1,8,7,,,,,,,,,,,,,{8}1b,
,,{4}1b,{8},1b,{16},,,,7bs3b[1:1],
7,7,7,{4}7,{8}8b,,,8b,
,,{4}8b,2/8,{8}5,5h[8:7],
{16}1b,1b,1b,1b,1b,1b,1b,1b,1b,1b,1b,1b,1b,1b,1b,1b,
{32}2b,3b,4b,5b,2b-6b[8:1],1b,8b,7b,{8}2b,Cf/A7/D8/A8/D1/A1/D2/A2/B2/D5,
E
