&title=朧
&artist=中原龍太郎; Dai.; Starving Trancer; 森永真由美
&first=-0.023
&des=YoungAd
&lv_5=14
&inote_5=(148.99)
{8},,4h[8:6]/1-5[8:4],,,,,,,,6-2[8:4]/7h[8:6],,,,,,,,4<8[8:4]/2h[8:6],,,,,,,,5>3[8:2]/6h[8:4],,,,,,
{16}4-1[8:1],,6,,4,,,,4,,5-8[12:1],5,,,,,4-1[8:1],,7,,4,,,,4,,5-8[12:1],5,,,,,
1-4[8:1],,6,,1,,,,1,,6,6,,,1,,6,,3<5[8:1],,5<7[8:1],,7>1[8:1],,1pp1[6:1],,5x,5x,,,,,
5-8[8:1],,2,,5,,,,5,,3-6[12:1],3,,,,,5-8[8:1],,1,,5,,,,5,,3-6[12:1],3,,,,,
8-5[8:1],,2-5[8:1],,8-4[8:1],,2,,8,,3-8[8:1],3,,,3,,5-8[8:1],,3-8[8:1],,5-1[8:1],,3,,5,,3,3,,,
1x,,8/2,,7/3,,6h[8:3]/4V28[8:1],,,,,,,,8x,,1/7,,2/6-2[8:1],,3/5,,4bw8[8:4],,,,,,,,,,,,
{4},1h[8:7]/8p3<8[8:5],,,,E2/2qq2-8-4<6[8:5]*qq2<8-4-6[8:5],,,,
{16}3h[8:1],,6,5,7h[8:1],,2,4,3h[8:1],,8,5,7h[8:1],,1,7,2,8,2,8,3,7,3,7,4,6,4,6,3-7[8:1],5,3,5,
{16}3b<3[8:4],Cf,,,{4},,,
{32}B4,B3,,,{8}8-5[8:1],1,2,3-8[8:1],4,5,6,7-2[8:1],,6-3[8:1],,7-2[8:1],,,1-4[8:1],1/8h[4:1],,,8,7/1,6/2,5/3,4,4pp4[4:1],,4qq4[4:1],,4x-8[8:1],,C,,
,4-1[8:1],5,6,7-4[8:1],8,1,2,3-1[8:1],,4-8[8:1],,5-7[8:1],,,4-8[8:1],4/5-1[8:1],,5,,2x-4[12:1],2x-8[12:1],2x-5[8:1]*-7[8:1],2x,2bx-6[4:1],,,,{16}3x,3x,3x
,3x,2x,2x,2x,2x,
{16}1-5[8:1],,8,,1,,7<4[8:1],6h[16:5],,,,,,,2p2[4:1],3,2,,1,,8,,7<4[8:1],7h[16:5],,,,,,,,,{8}2/7-5[8:1],8,2-4[8:1]/7,1,2-8[8:1]/7qq4[2:1],,2/7,,1x,2bx,3b,{16}4-1[8:1],4x-7[8:1],,,,,,,,,
{16}8-4[8:1]/1,,8,,8/1,,3-6[8:1],3h[16:5],,,,,,,
1-5[8:1]/8,2/7,3/6,,1,,6,,4-8[32:3],4-8-4b[32:5],,,,,,,
{8}5,6-4[8:1]/2,7,6/1-3[8:1],8,7-4[8:1]/1,8,1-4[8:1]/7,8,1/7qq4[8:3],,1>8[8:8]/7,,1b,,,,,,,,,,{16}
4-1[8:1],,7,,4,,,,4,,3/5-2[12:1],3/5,,,,,4-1[8:1],,8,,4,,,,4,,3/5q2[12:1],3/5,,,,,
1-4[8:1],,6,,1,,,,1,,2/6,2/6,,,8,,7,,2-5[8:1],,5-8[8:1],,8-4[8:1],,4-1[8:1],,6,6,,,,,
5-8[8:1],,2/6,,5,,,,5,,6/3-7[12:1],6/3,,,,,5-8[8:1],,1/6,,5,,,,5,,6/3p7[12:1],6/3,,,,,
8-4[8:1],,2-5[8:1],,8-5[8:1],,2,,8,,3-7[8:1],3,,,3/6,,5-2[8:1],,3-8[8:1],,5-8[8:1],,3,,5,,3,3,,,
8/7,,6/5,,4/3,,2h[8:3]/1V35[8:1],,,,,,,,6/7,,1/4,,8-4[8:1]/5,,2/3,,6bw2[8:4],,,,
,,,,,,,,,,8,7,,1,2,3,,6/4<6[12:1],,,,,,,8,,1,,2/8,7,6,5,4,3,2,1,8h[4:3],,,,5,,3,,1b,2,3,4,5,6,7,8,1h[4:3],,,,2,,4,,7b,6,5,4,3<6[8:2],2,1,8,7h[8:2],,,,,,B3,E4,3x/6b,,4,5<8[4:1],4,,1-4[8:1],,,,,,8x,,,,3b/6x,,,,,4,5,4,5,4,5,4,
4-1[8:1]/5-8[8:1],,3/6,,4/5,,,,4/5,,3-6[12:1]/6-3[12:1],3/6,,,,,4-1[8:1]/5-8[8:1],,2/7,,4/5,,,,4/5,,3-6[12:1]/6-3[12:1],3/6,,,,,
1-4[8:1]/8-5[8:1],,7/2,,1/8,,,,1,,2-6[12:1]/6,2/6,,,8,,7,,5-2[8:1],,2-6[8:1],,6-1[8:1],,1-4[8:1],,5,5,,,,,
5-8[8:1]/1-4[8:1],,2/6,,5/1,,,,5/1,,6-2[12:1]/3-7[12:1],6/3,,,,,5-8[8:1]/1-4[8:1],,2/6,,5/1,,,,5/1,,6p2[12:1]/3q7[12:1],6/3,,,,,
1-5[8:1],,8-6[8:1],,1>4[8:1],,8,,1,,5-8[8:1],5,,,5,,4-7[8:1],,1-6[8:1],,4-1[8:1],,1,,4,,5,5,C,,,,
4-1[8:1]/5-8[8:1],,2/6,,4/5,,,,4/5,,3v6b[12:1]/6v3b[12:1],3/6,,,,,4-1[8:1]/5-8[8:1],,3/7,,4/5,,,,4/5,,3p6b[12:1]/6q3b[12:1],3/6,,,,,
1-4[8:1]/8-5[8:1],,7/2,,1/8,,,,1/7,,2b-6b[12:1]/6,2/6,,,8bx,,7bx,,5b-2b[8:1],,2b-7b[8:1],,7b-3b[8:1],,3b-8b[8:1],,5b,5b,,,,,
5-8[8:1]/1-4[8:1],,2/6,,5/1,,,,5/1,,6<7-2b[12:1]/3>2-7b[12:1],6/3,,,,,5-8[8:1]/1-4[8:1],,2/6,,5/1,,,,5/1,,6q2b[12:1]/3p7b[12:1],6/3,,,,,
2bx-6b[8:1],,8b-3b[8:1],,2b-5b[8:1],,8b,,2b,,6b-1b[8:1],6b,,,6b-3b[8:1],,5b-8b[8:1],,6b-1b[8:1],,5b-2b[8:1],,6b,,5b,,7b,7b,,,
{8}1/8,4/5,6/7,2V86[8:1]/3h[8:3],,,,1/5,7/3,1-5[8:1]/5,7/3,1/5w1[4:1],,,,,7/6,3/1,5/6,3V17[8:1]/2h[8:3],,,,4-1[8:1]/5,3/7,4/8-4b[8:1],7,8/6bw2b[1:1],
