&title=運命論
&artist=ルゼ ☆ えみゅう。
&first=0
&des=?D?
&lv_5=14+
&inote_5=(170)
{1},
{8}
1h[2:1],,,,4h[2:1],,,,2h[2:1],,,,5h[2:1],,,,3qq5[4:3],,,,,,,,7qq1[4:3],,,,,,,,
4h[2:1],,,,1h[2:1],,,,3h[2:1],,,,8h[2:1],,,,2pp8[4:3],,,,,,,,6pp4[4:3],,,,,,,,
2h[8:1],3,2h[16:1],5,2h[8:1],4,3h[16:1],6,
7h[8:1],5,7h[16:1],4,7h[8:1],5,6h[16:1],3,
3h[8:1],1,3h[16:1],8,3h[8:1],1,2h[16:1],7,
6h[8:1],8,6h[16:1],1,6h[8:1],8,7h[16:1],2,
{16}
3,4,3,,5,4,5,,2,4,2,,6,4,6,,2,1,2,,8,1,8,,3,1,3,,7,1,7,,
2,1,3,,7,8,6,,3,4,2,,6,5,7,,2,1,2,,3,4,3,,7,8,7,,6,5,6,,
{1}
1bs5[2:1],
{16}
8-2[8:1],,,,3,,,3,8<5[8:1],,5,,4,,,,1-7[8:1],,,,6,,,6,1>4[8:1],,4,,5,,,,
7<5[8:1],,,,3,,,3,4-8[8:1],,5,,6,,,,2>4[8:1],,,,6,,,6,5-1[8:1],,4,,3,,,,
2-5[8:1],,,,6,,,6,8>3[8:1],,8,,7,,,,7-4[8:1],,,,3,,,3,1<6[8:1],,1,,2,,,,
4-1[8:1],,,,6,,,6,2>5[8:1],,2,,1,,,,6-1[8:1],,,,3,,,3,7<4[8:1],,1,,8,,,2,2-5[8:1],,,,12,,,8,8>3[8:1],,7,,68,,,,5-1[8:1],,,,45,,,2,2>5[8:1],,1,,28,,,,
7-4[8:1],,,,17,,,3,3>8[8:1],,5,,3/4-1[8:1],,,,4/5-8[8:1],,,,5/6<3[8:3],,,1,1,,2,,4,,,,
2-5[8:1],,,,12,,,8,8>3[8:1],,7,,68,,,,5-1[8:1],,,,45,,,2,2>5[8:1],,1,,28,,,,
7-4[8:1],,,,17,,,3,3>8[8:1],,5,,34,,,,7,,,,2,,,,3,,,,4,,,,
57,,57,,48,,1,2,1,3,1,,28,,3,3,4,,24,,15,,8,7,8,6,8,,17,,6,6,5,,57,,48,,3,4,1,4,3,,25,,1,1,8,,56,,34,,2,1,3,1,2,,18,,7,7,5,,46,,28,,3,5,1,8,2,,34,,2,2,1,,34,,45,,6,5,8,5,6,,78,,1,1,5,,24,,34,,2,1,4,8,2,,15,,3,3,4,,35,,47,,8,1,7,5,6,,34,,18,27,3b/6b,,
42,,51,,8,7,8,6,8,,71,,6,6,5,,75,,84,,1,2,1,3,1,,82,,3,3,4,,42,,51,,6,5,8,5,6,,74,,8,8,1,,43,,65,,7,8,6,8,7,,81,,2,2,4b,,53,,71,,6,4,8,1,7,,65,,7,7,8b,,65,,54,,3,4,1b,5,3,,21,,8,8,4b,,75,,65,,7b,1,5,3,7,,8/4b,,6,6,3b,4,2,6b,5,7,2b,1,3,7b,8,6,
{24}
1,5,1,
{16}
6,2,7,3,7,4,7,5,7h[8:1],,8,5,2h[8:1],,1-5[8:1],1,1,1,
{4}
1bs5>4z8<8<8[2:7],,,,,,,,,,,,,,,,,
{8}
6,5,,,,,,,2,3,4,3,5,,6,,1,2,,,,8,8,,,,,,,,,,
3,4,,,,,,,7,6,4,5,6,,3,,8,7,,,,1,1,,,,,,,,,,
7,8,,,,,,,3,2,1,7,8,,7,,4,3,,,,5,5,,,,4h[4:1],,,,
{16}
2,4,3,5,4,6,5,7,2,4,3,5,4,6,5,7,2,1,2,1,3,8,3,8,
{24}
2,3,4,1,8,7,1,2,3,8,7,6,
{16}
4,5,
{24}
3,6,5,6,5,6,5,6,5,7,6,5,2,3,4,1,8,7,1,2,3,
{16}
8,4,8,4,7,5,7,4,
{24}
7,6,5,8,7,6,1,8,7,2,1,8,
{16}
5,4,5,3,5,2,5,1,4,3,4,2,4,1,4,8,
{24}
4,5,6,3,4,5,2,3,4,1,2,3,
{16}
8,5,7,4,
{24}
6,5,6,5,6,5,
{16}
7,4,7,4,8,2,8,2,5,2,5,2,7,1,7,1,7,8,6,1,
{24}
5,4,5,
{16}
3,6,
{24}
2,1,2,
{16}
8,3,7,4,6,5,
7,5,6,4,5,3,4,2,7,5,6,4,5,3,4,2,7,8,7,8,6,1,6,1,
{24}
7,6,5,8,1,2,8,7,6,1,2,3,
{16}
5,4,
{24}
6,3,4,3,4,3,4,3,4,2,3,4,7,6,5,8,1,2,8,7,6,
{16}
1,5,1,5,2,4,2,5,
{24}
2,3,4,8,7,6,1,5,1,5,1,5,
{16}
4,5,4,6,4,7,4,8,5,6,5,7,5,8,5,1,
{24}
5,4,3,6,5,4,7,6,5,8,7,6,
{16}
1,4,2,5,
{24}
3,4,3,4,3,4,
{16}
2,5,2,5,1,8,1,8,4,7,4,7,1,8,1,8,2,1,3,8,4,7,5,6,8b,7b,1b,6b,2b,5b,3b,4h[7:4],,,,,,,,,
1-6[8:1],,2,,4-8[8:1],3,2,,1<6[8:1],,2,,13,,4,,
5-1[8:1],,7,,8>3[8:1],7,6,,5w1[8:1],,6,,5,,,,
3b,4,2h[8:1],,8,1,7,8,
{24}
6,5,6,
{16}
5h[8:1],,8h[8:1],,4,5,3,4,1h[8:1],,5,1h[8:1],,6,1,,
{24}
18,27,36,
{16}
45,,,,
8-3[8:1],,7,,5-1[8:1],6,7,,8>3[8:1],,7,,86,,5,,
4-8[8:1],,2,,1<6[8:1],2,3,,4w8[8:1],,3,,4,,,,
6b,5,7h[8:1],,1,8,2,1,
{24}
3,4,3,
{16}
4h[8:1],,1,1,5,4,6,5,7,7,3,4,2,2,
{24}
8,1,8,
{16}
2,1,3,,34,,
4-7[8:1],,3,,1-5[8:1],2,3,,4<7[8:1],,3,,42,,1,,
8-4[8:1],,6,,5>2[8:1],6,7,,8w4[8:1],,7,,8,,,,
2b,1,3h[8:1],,5,4,6,5,
{24}
7,8,7,
{16}
8h[8:1],,5h[8:1],,1,8,2,1,4h[8:1],,8,4h[8:1],,7,4,,
{24}
45,36,27,
{16}
18,,,,
5-2[8:1],,6,,8-4[8:1],7,6,,5>2[8:1],,6,,57,,8,,
1-5[8:1],,3,,4<7[8:1],3,2,,1w5[8:1],,2,,1,,,,
7b,8,6h[8:1],,4,5,3,4,
{24}
2,1,2,
{16}
1h[8:1],,4,4,8,1,
{24}
7,8,7,
{16}
1,6,
{24}
3,4,3,
{16}
5,2,
8,1,7,1,5,3,6,4,
8-3[8:1],,,,2-5[8:1]/8,,,,2/4-7[8:1],,,,4/6-1[8:1],,,,2-5[8:1]/6,,,,2/8-4[8:1],,,,8w4[8:1],,,,8,,,,
1h[8:1],,4h[8:1],,2,4,,3,
{24}
5,4,5,
{16}
4h[8:1],,5,3,6,4,7,,7h[8:1],,5,7h[8:1],,6,8h[8:1],,
{24}
1,2,3,
{16}
45,,6,5,8,1,8h[8:1],,2,1h[8:1],,3,4,3,4h[8:1],,2,5,,4,
{24}
6,5,6,
{16}
4,7,
{24}
3,4,3,
{16}
5,2,8,1,7h[8:1],,5,6,4,5,3,4,2h[8:1],,4,2h[8:1],,5h[8:1],,4,5,4,6,3,7h[8:1],,8,7,1,6,2,5h[8:1],,1,
{24}
7,8,7,8,7,8,
{16}
6,1,6,2,
{4}
6h[4:1],1h[4:1],5h[4:1],2h[4:1],8h[4:1],3h[4:1],5h[4:1],1h[4:1],8q1[2:1],,,,4q5[2:1],,,,
3h[4:1],8h[4:1],4h[4:1],7h[4:1],1h[4:1],6h[4:1],4h[4:1],8h[4:1],1p8[2:1],,6p4[2:1],,4>5[4:3],,8z4z8[1:1],,,,,
E
