&title=Avant-garde HISTORY
&artist=Roselia
&first=0
&des=Yuzukeai
&lv_5=14
&inote_5=(228)
{1},,{8},,,,,,,,,,,,,18,18,3hb[2:3]/6b,,,4x,,,2x,,,8x,,,6x,
{12}2,2,4,3,6,5,
{8}8h[4:1],,3,24,,6,75,,36,18,,8,2,7,3,6hb[8:14],,,7hx[32:1],,,1hx[32:1],,3,3hx[32:1],,5,5hx[32:1],,4,4,7,3,1,2,3h[8:3]/8,,,7,5,6,4/7h[8:3],,,2,4,3,1h[8:3]/5,,,8,5,6,47,3,4,25,1,7,26,1,5,4b/8b-6-1v2-4[4:7],,,,,,,,,,,,,,,,,,
{16}7,5,7,5h[16:5],,,,,
{24}8b,4x/7x,6x/3x,2x/5x,,,{8},1,
{8},5,37,,4h[8:2],,1,,2h[8:3]/8,,,6,,1,1/5-7[8:1],,3-1[8:1],,8,,
6-8-4[8:4],,8,,4>6[2:1],,1,,,,,,2h[8:3]/4,,,3,,8,2,4,3h[4:1],{8}8,8,,75,,6h[8:2],1h[8:1],,4,3h[8:1],5,2h[8:1],5,1h[8:1],5,8h[8:1],5,1h[8:1],5,2h[8:1],5,3,6h[8:1],3,7h[8:1],3,8h[8:1],4,6,3,2h[8:2]/5h[8:2],,,34,,47,,61,,{16}3,4,3,,3,,6,5,6,,6,,2,4,2,,2,,7,5,7,,7,,2h[64:1]/6h[64:1],,,,,,,,,,,,,,,,,,,,,,,,
{32}2b,3,4h[16:19],,,,,,,,,,,,,,,,,,,,,,,,,,,,,,,,,,,,,,6,,,,,,,,B6/B7/3h[2:3],,,,,,,,,,,,,,,,,,,,,,,,,,,,,,,,,,,,,,,,,,,,,,,,{32}7,6,5h[16:19],,,,,,,,,,,,,,,,,,,,,,,,,,,,,,,,,,,,,,2,,,,,,,,B3/B4/7h[2:3],,,,,,,,,,,,,,,,,,,,,,,,,,,,,,,,,,,,,,,,,,,,,,,,3,2,1-5[1:1],,,,,,,,,,,,,,,,,,,,,,,,,,,,,,,,,,,,,,7,,,,,,,,7h[8:3],,,,,,,,,,,,6h[8:3],,,,,,,,,,,,5,,,,,,,,4,,,,,,,,3,,,,,,,,7,6,5-1[1:1],,,,,,,,,,,,,,,,,,,,,,,,,,,,,,,,,,,,,,2,,,,,,,,2h[8:2],,,,,,,,8,,,,3,,,,7h[4:1],,,,,,,,4h[4:1],,,,,,,,6h[4:1],,,,,,,,5-3[4:1],,,,,,,,7-5pp6[1:2],,,,,,,,,,,,,,,,,,,,,,,,,,,,,,,,,,,,,,,,2,,,,,,,,B3/E4,,,,,,,,,,,,,,,,,,,,,,,,,,,,,,,,,,,,,,,,4-6[4:1],,,,,,,,2-4qq5[1:2],,,,,,,,,,,,,,,,,,,,,,,,,,,,,,,,,,,,,,,,7,,,,,,,,B7/E8,,,,,,,,,,,,,,,,,,,,,,,,,,,,,,,,,,,,,,,,57,,,,,,,,6/7h[1:1],,,,,,,,,,,,1h[8:5],,,,,,,,,,,,,,,,,,,,,,,,,,,,35,,,,,,,,3h[1:1]/4,,,,,,,,,,,,8h[8:5],,,,,,,,,,,,,,,,,,,,,,,,,,,,7,,,,,,,,1h[4:1]/5,,,,,,,,4,,,,2,,,,36,,,,,,,,4/8h[4:1],,,,,,,,5,,,,7,,,,63,,,,,,,,1,,,,1,,,,4h[4:1],,,,,,,,3h[4:1],,,,,,,,7,,,,7,,,,5,,,,5,,,,4,,,,4,,,,
{24}2-5[8:1],,,5,,,,,,8,,,,,,,,,8,7,6,5h[4:1],,,,,,7,6,5,4h[4:1],,,,,,6,5,4,3,,,
1,,,1,,,5,,,3,,,6,5,,,,,8,,,8,,,4,,,4,,,
{24}7-3[8:1],,,3,,,,,,1,,,,,,,,,1,2,3,4h[4:1],,,,,,2,3,4,5h[4:1],,,,,,3,4,5,6,,,
8,,,8,,,4,,,6,,,3,4,,,,,8,,,8,,,8,,,8,,,
{16}5-1[8:1],,,,1,,,,,,,,37,,,,,,,,1,,,,7,5,6-8[8:1],,,,4,,,,2,,2h[4:1],,,,7,,,,35,,,,
4-8[8:1],,,,8,,,,,,,,62,,,,,,,,8,,,,2,4,3-1[8:1],,,,5,,,,7,,7h[4:1],,,,2,,,,83,,,,
2/6-8[8:1],,,,4h[2:1],,,,,,,,
{24}6b,5,4,3,2,1,8,,,,,,{16}26,,,,48,,,,,,72,,,,6,,6h[8:2],,,,8h[8:2],,,,4,,,,
6/2-4[8:1],,,,8h[2:1],,,,,,,,{24}2b,1,8,7,6,5,4,,,,,,{16}73,,,,51,,,,,,27,,,,1,,1,,7,,2,,6,,3,,5,,4b,,,,B8,,A1,,E7,,A2,,E6,,A3,,E5,,B3,,C,,,,1/7h[4:1],,,,5,,6/2h[4:1],,,,4,,3/7b,,,,1b/8,,,,3b/6b,,,,
{24}2b/7,3,4,5,,,{16}8h[4:1],,,,3-8[8:1],,,,
{24}7-4[8:1],,,,,,{16}1h[4:1],,,,5-1[8:1],,,,3>6[4:1],,,,,,5h[4:1],,,,4x,3x,7V51[4:1]/2xV48[4:1],,,,,,,,,,,,
{24}7b/2,6,5,4,,,{16}1h[4:1],,,,6-1[8:1],,,,
{24}2b,3,4,5,,,{16}8h[4:1],,,,4,,,,
{24}8b/2,7,6,5,,,,,,1b/7,2,3,{16}4,,8,,38,,,,5-7[8:1]/6-4[8:1],,,,,,,,
2b-5[8:1],,,,
{24}7-3[8:1],,,,,,{16}4h[4:1],,,,1-6[8:1],,,,3-7[8:1],,,,5h[4:1],,,,
{24}1,2,3,4,,,,,,{16}8,,,,17,,
{24}1b/7,26,35,4,,,,,,,,,{16}26,,,,
{16}3,5,4,,4,,48,,,,6,,{16}6,5,6,,6,,61,,,,3,,3,4,3,,3,,38,,,,27,,
{24}5h[24:1]/4h[24:1],,,,,,
{16}3,,3,,3,,3,,
{24}7b,8,1,2,3,4,5,6,7,,,,
{16}B2fh[4:1]/B3fh[4:2]/E3fh[4:3],,,,7b,,,,4,,,,6,,,,5,,,,7,,51,,,,15,,3-1-4[4:1]/7-5-8[4:1],,,,,,,,,,,,
{24}2b,1,8,7,6,5,4,3,2,,,,
{16}B7fh[4:1]/B6fh[4:2]/E7fh[4:3],,,,2b,,,,5,,,,3,,,,4,,,,2,,37,,,,73,,1-3-5[4:1]/5-7-1[4:1],,,,,,,,,,,,
8b,,5,,6,,25,,,,1,,
{24}1/4-8[8:1],,,,,,
{16}2-5[8:1],,,,7-4[8:1],,,,
{24}3b,2,1,8,,,{16},,
{24}1/5b,26,37,48,,,
{16},,3,4,2,,2,,2,,5,,5,,
1b,,4,,3,,74,,,,8,,
{24}5-1[8:1]/8,,,,,,
{16}7-4[8:1],,,,2-5[8:1],,,,
{24}6b,7,8,1,,,{16},,
{24}8/4b,73,62,51,,,,,,{16}2,4,3,,3,,3,,63,,63,,3b/6b,,,,3,,2h[4:1]/4,,,,6,,5/7h[4:1],,,,1,2,3,4,8,,8,,5,,7,,2,,4,,1,,8,,
{32}2b/7b,36,4h[16:5]/5h[16:5],,,,,,,,,,,,,,,,,,,,,,
{24}7,,,5-2[8:1],,,,,,8,,,,,,6,,,1b,2,3,4h[4:1],,,,,,2b,3,4,5h[4:1],,,,,,3b,4,5,6,,,
8,,,8,,,4,,,6,,,3,4,,,,,1,,,1,,,5,,,5,,,
{24}2,,,6-1[8:1],,,,,,4,,,,,,2,,,8b,7,6,5h[4:1],,,,,,7b,6,5,4h[4:1],,,,,,6b,5,4,3,,,
1,,,1,,,5,,,3,,,6,5,,,,,73,,,37,,,37,,,37,,,3b-1-4[2:3]/7b-5-8-4b[2:3],,,,,,,,,,,,,,,,,,,,,,,,,,,,,,,,,,,,,,,,,,,,,,,,
E
&inote_6=
