&title=ロミとロボの宇宙飛行
&artist=onoken
&first=-1.395
&des=fpd
&des_5=fpd
&lv_5=14
&inote_5=(172){1},
{16}
,,,,
{16}
,,4,,5,,6h[8:3],,
(172)
{16}
,,,,4,,3h[8:2],,,,
7h[8:2],,,,6h[8:3],,
{16}
,,,,5h[8:2],,,,3,,2h[8:2],,
,,4h[8:3],,
{16}
,,,,5h[8:2],,,,6,,7h[8:2],,
,,6h[8:3],,
{16}
,,,,5h[8:2],,,,
3,,2h[8:2],,,,4h[8:4],,
{16}
,,,,2,,3h[8:2],,
,,5,,6,,7h[8:3],,
{16}
,,,,3,,4h[8:2],,
,,6h[8:3],,,,,,
{16}
5h[8:2],,,,6,,7h[8:2],,
,,8h[8:3],,,,,,
{16}
7h[8:4],,,,,,,,
5h[8:2],,,,8<5[8:1],,,,
{16}
4bqq6[8:4],,,,6,,7,,
,,7,,8<5[8:1],,,,
{16}
4qq5[8:4],,,,6,,7,,
,,7,,8<5[8:1],,,,
{16}
4qq6[8:4],,,,6,,7,,
,,7,,8>3[8:1],,,,
{16}
4V62[16:5],,,,8,,7,,
,,7,,
{12}
8>3[8:1],1,7,
{16}
6pp4[8:4],,,,4,,3,,
,,3,,2>5[8:1],,,,
{16}
6qq7[8:4],,,,2,,1,,
,,1,,8>3[8:1],,,,
{16}
6pp4[8:4],,,,4,,3,,
,,3,,2<7[8:1],,,,
{16}
5V37[16:5],,,,8,,1,,
,,1,,2,,,,
{16}
8/2b,,2>6[8:2],1,2,,6p1[8:2],,
,,7,,8,,,,
{16}
8/2,,8<4[8:2],1,8,,4pp3[8:3],,
,,3,,2,,,,
{16}
2,,2>6[8:2],1,2,,6p1[8:2],,
,,7,,8,,,,
{16}
8/2,,8<4[8:2],1,8,,4,,
3,,2,,
{12}
2,5,3,
{16}
7/4,,7V53[8:2],5,8,,3q8[8:2],,
,,2,,1,,,,
{16}
1/6,,1>5[8:2],5,8,,5V31[8:2],,
,,6,,7,,,,
{16}
7/4,,7V53[8:2],5,8,,3q8[8:2],,
,,2,,1,,,,
{16}
1/6,,1>5[8:2],5,8,,5V31[8:2],,
8,,7,,6,,5,,
{16}
48,,,51,,,26,37,
4/8-4[8:1],,,,5,,3>8[8:1],,
{16}
,,4,,5-7[12:1],,,,
2,,1,1,8,,2q6[8:1],,
{16}
,,8,,8p4[8:1],,1,,
8/4,,2,,
{12}3,3,4,
{16}
4,,5V71[16:3],,,,3,,
4,,5,5,6-8[12:1],,7,,
{16}
3-5[12:1],,2,,8,,1,,
{16}
51,,,48,,,37,26,
5/1-5[8:1],,,,4,,6<1[8:1],,
{16}
,,5,,4-2[12:1],,,,
7,,8,8,1,,7p3[8:1],,
{16}
,,1,,1q5[8:1],,8,,
1/5,,6,,6pp6[16:4],,,,
{16}
4,,4>8[16:3],,,,5,,
,,4,4,3<5[12:1],,2,,
{16}
8w4[8:1],,8,,8b,,,,
{16}
7,8,7,8h[16:3],,,6,5,
6,5,,,
{12}
3,3,6,
{12}
4,5,4,7,6,7,
{16}
5,4,3,2,8,7,6,5,
{16}
3,4,3,4h[16:3],,,2,1,
2,1,,,
{12}
6,6,4,
{12}
5,3,4,2,1,2,
{16}
8,7,6,5,2,3,4,5,
{16}
7,6,7,6h[16:3],,,8,1,
8,1,,,
{12}
2,2,8,
{12}
1,7,3,4,2,6,
5,7,2,
1,3,6,
{16}
4,5,4,5h[16:3],,,2,1,
2,1,,,
{12}
8,8,1,
{12}
7,8,6,4,5,3,
{16}
6,7,8,1,4,3,2,1,
{16}
7b-5[12:1],8,7,8,,,3-1[12:1],4,
3,4,,,
{12}
7,7,8,
{12}
6,6,1,5,5,3,
{16}
4,5,6,7,1,2,3,4,
{16}
6-8[12:1],5,6,5,,,2-4[12:1],1,
2,1,,,
{12}
6,6,5,
{12}
7,7,4,8,8,2,
{16}
1,8,7,6,4,3,2,1,
{16}
7b-3[8:1],8,7,8,,,2b-5[8:1],1,
2,1,,,8,7,6,5,
{16}
3b-8[8:1],4,3,4,,,6b-1[8:1],5,
6,5,,,4,3,2,1,
{16}
6b>3[8:1],8,6,8,,,2b-5[8:1],1,
2,1,,,6,7,8,1,
{16}
3,4,5,6,
{12}
8,2,4,
5w1[8:1],6,4,,,,
{16}
7h[8:2]/3h[8:2],,,,,,7h[8:2]/4h[8:2],,
,,,,7h[8:1]/5h[8:1],,,,
{16}
7h[8:2]/6qq4[8:4],,,,,,5h[8:2],,
,,,,5h[8:1],,,,
{16}
2h[8:2]/6h[8:2],,,,,,2h[8:2]/5h[8:2],,
,,,,2h[8:1]/4h[8:1],,,,
{16}
2h[8:2]/3pp5[8:4],,,,,,4h[8:2],,
,,,,4h[8:1],,,,
{16}
7h[8:2]/3h[8:2],,,,,,7h[8:2]/4h[8:2],,
,,,,7h[8:1]/5h[8:1],,,,
{16}
7h[8:2]/6q4[8:4],,,,,,5h[8:2],,
,,,,5h[8:1],,,,
{16}
2h[8:2]/6h[8:2],,,,,,2h[8:2]/5h[8:2],,
,,,,2h[8:1]/4h[8:1],,,,
{16}
2h[8:2]/3p5[8:4],,,,,,4h[8:2],,
,,,,4h[8:1],,,,
{16}
6b<8[12:1],,,,6/4,,,,
3>1[12:1],,,,3/5,,,,
{16}
6<8[12:1],,,,6/4,,,,
3>1[12:1],,5,,3/5,,,,
{16}
5b<8[8:1],,,,5/3,,,,
4>1[8:1],,,,4/6,,,,
{16}
5<8[8:1],,,,5/3,,,,
4>1[8:1],,6,,4/6,,,,
{16}
3b/5b,,3,,3/6,,3,,
3/7,,3,,3/8,,3,,
{16}
6b/4b,,6,,6/3,,6,,
6/2,,6,,6/1,,6,,
{16}
4b,5,4,5,3,6,3,6,
2,7,2,7,1,8,1,8,
{16}
2b,7,3,6,2,7,3,6,
4b,5,3,6,2b,7,1,8,
{32}
2bqq5[8:3],3,4,5,
6,7,8,1,
{16}
2b,,,,
,,6,,7,,5s1[8:9]/8h[8:13],,
{16}
,,,,,,,,
,,,,,,,,
{16}
,,,,,,,,
{12}
1,7,3,
4w8[8:1],2,6,
{16}
4b,,,,2,4,3>8[8:1],5,
4,,7v4[8:1],,,,7,,
{12}
2,3,4,3,4,5,
{16}
4,,5-2[8:1]*-8[8:1],,,,5,,
{16}
,,,,2,1,3q7[8:1],,
,,8<5[8:1],,1,,8,,
{12}
2,3,4,
{16}
3,,4-8[8:1],,
,,4/2V83[24:5],,,,7,6,
{16}
5V71[24:4],,,,5/3,,2-6[8:1]*-4[12:1],,
,,2,,,,7,5,
{16}
8-3[8:1],,,,8-4[8:1]/1-6[8:1],,,,
1>4[8:1],,,,5,,
{24}
5b,6,7,
{16}
8,,,,4,,
{24}
7b>2[8:1],6,5,
{16}
4,,7<4[8:1],,,,
{24}
4b,3,2,
{16}
1,,,,
{24}
4h[8:2]/1b-6[8:1],2,3,
{16}
,,
{24}
1>4[8:1],,,
{16}
4,,,,
{24}
5b,6,7,
{16}
8,,,,7>2[8:1],5,7,5,
7<4[8:1],,
{24}
3,,,
{24}
,,,
{24}
3b,2,1,
{24}
8,,6,,6,,
{24}
2,,4,,4,,
{16}
8-4[8:1],,4-8[8:1],,,,6,,
{16}
6b-1[8:1],,1V75[24:4],,6,,3b,,
2v4[24:3],,1,,2b,,
{24}
5,6,7,
{16}
8b-5[8:1],,5V71[24:4],,8,,1b,,
2v4[24:3],,3,,2b,,
{24}
6,7,8,
{16}
1b-5[8:1],,2-6[8:1],,1<6[12:1],,2b,,
1,,{24}
5,4,3,
2b,1,8,
7,6,5,
{12}
8b,8b,8b,6b,6b,6b,
4b,4b,4b,
{16}
2b<6[6:1],,,,
{16}
4bpp4[8:12]*qq4[8:12],,,,,,,,
,,,,,,,,
{16}
,,,,,,,,
,,,,,,,,
{16}
8-4[8:4],,,,2,,2,,
,,3,,3,,,,
{16}
1-5[8:4],,,,7,,7,,
,,6,,6,,,,
{16}
7-4[8:4],,,,2,,2,,
,,3,,3,,,,
{16}
2-5[8:4],,,,7,,7,,
,,6,,6,,,,
{16}
6>4[8:4],,,,3,,3,,
,,3,,3,,3b,,
{16}
,,,,,,,,
,,,,,,,,
E
