&title=悪戯センセーション
&artist=あやぽんず/あよ
&first=0
&des=NaOH
&clock_count=4
&lv_6=13+
&inote_6=(192)
{4},,,,
{8}2x-5[8:1]/8x-5[8:1],2x/8x,,,8x-5[8:1]/1xv4[8:1],1x/8x,,,
2,2v4b[8:3]*^7b[8:3],,2,,,,,
6x-1[8:1]/5x-2[8:1],6x/5x,,,5x-8[8:1]/4xv1[8:1],4x/5x,,,
7,7,5-8b[8:2]*q2b[8:2],5,,,,,
26,2h[4:1]/6h[4:1],,,37,3h[4:1]/7h[4:1],,,
6pp5[8:3],2,6,3,,4,4>1[8:1],,
8<5[8:1]/4,,3>8[8:1]/8,,7<4[8:1]/3,,27,,
15,26,37,48,{32}1x,2x,3x,4x,5x,6x,7x,8x,1x,2x,3x,4x,5x,6x,7x,8x,
{4}1bx/Cf,,,,
{8}2x>5[8:1]/6x,,27,6<1[8:1],,26,2-6[8:1],,2>5[8:1],,27,8-4[8:1],,18,1>4[8:1],,
1-5[8:1],,18,7<4[8:1],,27,1h[4:1],,{16}5x,,3,4,3,,2,,5-1[8:1],,4,,3b,,,,
{8}7x<4[8:1]/3x,,72,3>8[8:1],,73,7-3[8:1],,7<4[8:1],,72,1-5[8:1],,81,8<5[8:1],,
8-4[8:1],,18,2-6[8:1],,7,8,,1b/8b,2b/7b,3b/6b,,
{16}2x/6x,,2x/6x,3x/7x,4x>8pp2[4:3]`8x<4pp6b[4:3],,4bx/8bx,,,,,,,,,,,,,,,,,,
{8}E1/B8/B1,,B7/B6/E7,E3/B2/B3,,6,6,5,
6<1[8:1],,3,2>5[8:1],,6,7,8z4[4:1],,E4,E3,E2,E1,
7,6,5,4-8[8:1],,3,2>5[8:1],,6,7,8q1[8:3],,E2/B2,,E3,E4,6,6,57,
8x-4[8:1],8x,8x>3[8:1],,,5,6,7,2x-5[8:1]/8,2x,2x^7[8:1],,,,3,2,
1h[4:1]/7,,7,7h[4:1],,5-1[8:1],,35,,2,2,7,7,{16}3,6,4,5,4,5,
{8}4>6b[8:3]`4!>1[16:3],,,,,1b,2b,3b,
4b>1b[8:1]/6b,,4,7<4b[8:1],,78,1,2,3V52b[4:1],,36,7,8-3b[8:1]*-5b[8:1],,8,,
2-6b[8:1]/7,,26,7V51b[4:1],,2,3,4,5>2b[8:1],,5<8b[8:1],,1v4b[8:1]*v6b[8:1],1,,,
5h[4:1],3,4,6h[4:1],{16}2,3,4,,26,,1,,
{8}1h[4:1],6,5,2h[4:1],{16}6,5,4,,34,,
34,25,1h[4:1]/6h[4:1],,,,,,56,47,3h[4:1]/8h[4:1],,,,,,18,27,
{4}3bxqq4>8[8:6]`6bxpp5<1b[8:6],,,,{8},E1,,B7/B6/E7,B2/E3/B3,,
6<2p5[4:7],,E1,,,,E3,,,,E4,,,,E3/D3,,,,6h[4:2],,4,,2h[4:2],,4,,
6h[4:1],,5h[4:1],,4h[4:1],,3h[4:1],,1x<4p7[4:6],,,2x,2x,,E2,E3,E4,,,,E2,E3,E4,,
8-6[4:1],,1,,2-4[4:1],,1,,8h[8:3],,,1,1,,28,,37,,(384)46,,,,(192)
3h[4:7]/7h[4:7],,,,,,,,,,,,,,,,
2-8v6-4b[4:5],,,,,,,,A7,,C,,A3,,2,,
2-8v6-4b[4:5],,,,,,,,A7,,C,,A3,,2,,
{4}3xh[4:1]/7x,{24}E7,B6,B5,E5,,,{4}6xh[4:1]/2x,{24}E3,B3,B4,E5,,,
{4}3xh[4:1]/7x,{24}E7,B6,B5,E5,,,{4}6xh[4:1]/2x,{24}E3,B3,B4,E5,,,
{16}2x/6x,,,37,37,,48,,1x/5x,,,48,48,,37,,
2b^7[8:1]/6b^3[8:1],,,,
{4}D1f/D5/2b-8-5-2[4:4]`6b-4-1-6b[4:4],,,,,,7-3[8:1],
{16}7x/8x,,,,2>5[8:1],,1,,2,,8,7,6p4[8:3],,4,,6,,3,,2,,1,,8-5[8:1]`8!-3[8:1],,,,8,,,,
6x^3b[8:1],,,2,6,,1,,2xq6b[8:1],,,7,2,,8,,8-5b[8:1]*-4b[8:1],,17,,8>6b[16:5],,,,8,,,,
1-5[8:1],,2,,1x/3x,,,,3>8[8:1],,4,,3,,7,6,5q7[8:3],,2,,5,,2,,3,,4,,5>2[8:1]`5!<8[8:1],,,,5,,,,
1xv6b[8:1],,,7,1,,8,,8x<5b[8:1],,,1,8,,2,,3>8b[8:1],,4,,5,,6,,7-5b[12:1],,8-4b[8:1],,7>5[16:5],,8,,
7x,,,,1,,2,,4h[4:1]/3,,1,2,3q5[8:3],,4,,3,,6,,7,,8,,1s5[8:1]`1!z5[8:1],,,,1,,,,
7xp3b[8:1]/3x,,,2,7,,1,,1xq5b[8:1]/6x,,,7,1,,8,,1-4b[8:1]*-5b[8:1],,82,,1<3b[16:5],,,,1,,,,
8-4[8:1],,7,,8x/6x,,,,6<1[8:1],,5,,6,,2,3,4p2[8:3],,7,,4,,7,,6,,5,,4<7[8:1]`4!>1[8:1],,,,4,,,,
6,5,6,5,6,,7,,3,4,3,4,3,,2,,
{32}2b/1h[8:1],E3,B3,B4,E5,,,,7b/8h[8:1],E7,B6,B5,E5,,,,
{32}2b/1h[8:1],E3,B3,B4,E5,,,,7b/8h[8:1],E7,B6,B5,E5,,,,
{48}1bx>4-8[4:2]`8bx<5-1b[4:2],A2/A7,A3/A6,A4/A5f,,,,,,,,,{4},,,
{8}24,3,75,6,7-4[8:1]/5,,78,,
{16}2,,3,4,3,,25,,7,,6,5,6,,47,,8,,17,,26,,35,,4b-8b[8:1],,3b,,2b,,,,
2bx-5[8:1],,8bx-5[8:1],,2,,8,,1bx-4[8:1],,7bx-4[8:1],,1,,7,,
2,,6,,35,,46,,5-1[8:1]/7-4[8:1],,,,57,,,,
26,,3,5,4,,6,,37,,2,8,1,,7,,3,6,4,5,3,,24,,1b-5b[8:1],,8b,,7b,,,,
7b-5[12:1],,8b-4[8:1],,7,,8,,1b-5[8:1],,2b-4[12:1],,1,,2,,
6,,6,,57,,57,,8<5[8:1]/4>1[8:1],,,,48,,,,
26,,3,4,3,,25,,16,,7,8,7,,6V47b[4:1]/2,,,,16,,1>4b[8:1]*-5b[8:1],,,,1,,,,
6,,7,,8<5[8:1]/2,,,,48,,3,,2-5[8:1],,1,1,2,,8,,37,,37,,26,,26,,1v4[8:1]/5v8[8:1],,,,15,,,,
3,,3,,24,,24,,5,,5,,46,,46,,
3x,7,3,7,2x,6,2,6,1x,5,1,5,2x,6,2,6,3x,4,3,4,2x,5,2,5,1x,6,1,6,8x,7,8,7,
8bxV24V28[4:5]`8!V64V68b[4:5],,,,,,,,,,,,,,,,,,,,,,,,,,,,,,,,
