&title=IIDX
&artist=DJ Simon
&first=0
&des=DJ Slask
&lv_5=13
&inote_5=(110)
{1},
{24}3h[8:1],,,8,,4,,,6,56,,,7-4[12:1],,,5,,,78,,,,,,
{24}6h[8:1],,,1,,5,,,3,43,,,2-5[12:1],,,4,,,21,,,,,,
{24}3h[8:1],,,7,,4,,,6,16,,,7-4[12:1]/3-8[12:1],,,26,,,73,,,,,,
{24}6h[8:1],,,2,,5,,,3,83,,7,5,,5,4,,4,2,,16,,,,
{24}3>5[16:4],,,6h[12:1],,,5-1[16:2],,,4,,,4<8[8:1],,,3,,,34,,,,,,
{24}6<4[16:4],,,3h[12:1],,,4-8[16:2],,,5,,,5>1[8:1],,,6,,,56,,,,,,
{24}7,,7,6,,6,5h[4:1],,,3,,,8-4[12:1],,,3,,,2<7[12:1]/8,,,,,,
{8}5b>2[12:1],,8b<5[12:1]/5b,,3b>5[16:2]/8b,,3b/4h[8:1],,
{24}7,,,3,,4,6,,5,6,,2h[6:1],,,,4,,3,8,,,,,,5-7[12:1],,,5-1[12:1],,,,,,,,,8<5[12:1],,,8>3[12:1],,,,,,,,,
{24}7,,7,4,,4,6h[4:1],,,5,,,2,,2,5,,5,3h[4:1],,,4,,,4<7[12:1],,,,,,1-5[12:1],,,,,,7<4[12:1]/1>4[12:1],,,8,,,7b/1b,,,,,,
{24}65,,,12,,,48,,,,,,3,,7,4,{48},,,56,,,,,,,,,,,,,
{24}3,,4,2,,4,1h[8:1],,,8,,1,6,,5,7,,5,8h[8:1],,,1,,,3h[8:1],,,5,,4,5h[8:1]/6,,,4,,,3-8[12:1]/4-7[12:1],,,25,,,34,,,,,,
{24}6,,6,1,,8,3,,3,8,,1,{24}6<1[12:1]/2>5[12:1],,,37,,,2b/6b,,,,,,
{24}34,,,45,,,56,,,,,7,4,,5,2,,6/1h[24:7],,,,,,,
{24}8,,,38,,,12,,,56,,,7,,5,3,,5,7h[4:1],,,,,,
{24}4,,6,2,,4,8h[8:1],,,5h[12:1],,3,{24}3,,7,1,,5,3h[4:1],,,,,,
{24}7,,5,6,,2,4,,3,8,,,{24}26,,,78,,5,6,,34,,,7,
{24}75,,,54,,,42,,,,,2,1,,4,5,,8/7h[24:7],,,,,,,
{24}3h[8:1],,,8,,5,65,,,1,,4,43,,8,4,,,26,,,,,,
{24}38,,,65,,,42,,,,,,38,,,65,,,4<7[8:1]/2,,,,,,
{8}1b>4[12:1]/4b,,6b<1[12:1]/1b,,3b<1[16:2]/6b,,3b/2h[8:1],,
{8}6-2[8:1],,1-4[8:1],,3<8[8:1],,3h[8:1],,
{8}56,1,{24}3,,4,1,,8,5-2[12:1],,6-1[12:1],3,,7,5,,6,,,,
{8}3-7[8:1],,8-5[8:1],,6>1[8:1],,6h[8:1],,
{8}43,8,{24}6,,5,8,,1,4-7[12:1],,3-8[12:1],6,,2,4,,3,,,,
{8}5h[4:3]/1,,6,,,,1,,{8}4h[4:2]/8,,3,,{32}5,4,,,3,4,,,{8}15,,
{24}6,,6,5,,5,3h[8:1],,,4,,8,{24}3,,3,4,,4,6h[8:1],,,5,,1,
{8}4b<7[12:1],,1b>4[12:1]/4b,,6b<4[16:2]/1b,,6b/5h[8:1],,
{24}2,,2,5,,3,6,,5,6,,7-3[12:1]/4,,,8,1,,7,1>5[16:3],,2,,,6,6>2[16:3],,,1,,,8,,,7,,,6,,5,6,,2,4,,3,6,,8>6[24:6]/4,,,3,7h[4:1],,,,,,,,,1,,5,7,,3h[24:6],,,,,,6,5,,4,5,,7,5,,3,5,,
2,4-8[12:1],,6,6,,2,4b,,,,,,
{24}1-5[8:1],,3,{8}5>2[12:1],8,6,
{24}4-8[8:1],,6,{8}8<5[12:1],1,3,
{24}3h[8:1],,,4,4,8,6h[8:1],,,5,5,1,3,4,3,6,5,6,1b,,,,,,
{24}6,,5,7,,3,4,,2,8,,1,{24}7,6,5,3,2,1,6,5,4,2,1,8,
{8}3b>8[12:1]/7b,4,6b>3[12:1]/3b,7,1b<3[16:2]/6b,2,1b-6[12:1]/5b-2[12:1],,
