&title=μ3
&artist=水野健治 VS 穴山大輔
&first=-0.039
&des=τ12
&lv_5=14+
&inote_5=(192)
{1},
{4},,,
{8}2-5[8:1]b/6pp5[1:1],62,
{2}62,4h[4:1],
{4}3h[4:1],,26,7-4[8:1]b/3qq4[1:1],
{1}37,
{4}6h[4:1],,72,1-4[8:1]b/6p4[1:1],
{2}61,1h[4:1],
{4}3h[4:1],,27,8-5[8:1]b/3q5[1:1],
{2}38,8h[4:1],
{4}6h[4:1],,83,2-6[8:1]b/6>6[2:1],
{4}62,,3,1>1[2:1]/6-2[8:1]b,
{4}16,,5,3<3[2:1]/7-3[8:1]b,
{4}37,,5,8-4[8:1]b/4,
{8}82,2h[4:1],,,
{24}17,6,5,
{8}1h[4:1]/4,,,
{8}8-4[8:1]/6,,38,2-6[8:1],,27,8-5[8:1],,
{8}38,2-5[8:1],,82,1-5[8:11],,,
{16}3,7,3,7,3,7,3,7,2,8,2,8,2,8,2,8,1,,
{1},
{8}5,1,8,2,7,3,6,4,
{8}7,1,6,2,5,3,
{16}8,7,6,5,
{8}3,8,1,7,2,6xh[8:1],3xh[8:1],5xh[8:1],
{8}2,8,3xh[8:1],7xh[8:1],4xh[8:1],6,
{16}1,2,3,4,
{4}5-3[12:1]/1-7[12:1],5b-7[12:1]/1b-3[12:1],5b/1b-5[8:1],,
{8}4b^1[8:1]/8b^5[8:1],,4b/8bs4[16:3],,4b,4bz8[16:3],,4b/8b,
{8}8,,
{12}26,26,26,,,,48,8,8,
{12}37,3,3,26,6,6,
{24}1,5,1,5,1,5,
{16}2,6,3,7,
{16}48,,4,6,4,,4,1,4,,4,7,4,,4,8,
{16}3,7,3,6,3,5,3,4,3,2,3,1,3,8,3,7,
{32}2b-6[8:1],3,4,5,
{8},27,
{16}7,5,7,,7,1,7,,7,4,
{16}7,,7,2,7,,73,,15,,1-5[8:1],7,1,,3h[8:1],,
{16},,6,4,6,,6,8,6,,6,3,6,,6,1,
{16}7,2,7,3,7,4,7,5,7,6,7,8,7,1,7,2,
{12}6h[12:1],4,5,1h[12:1]b,3,2,8h[12:1]b,6,7,2h[12:1]b,4,3,
{16}6b,5,6,5,7,4,7,4,8,3,8,3,1,2,1,2,
{32}8b-4[8:1],7,6,5,
{16}2,2,8-3[8:1],,3,3,8-5[8:1],,4,4,8,,2,,
{16}1b-5[8:1],,7,7,1-6[8:1],,6,6,1-4[8:1],,5,5,1,,7,,
{24}8b-4[8:1],E8,E7,
{16}E6,,8>3[8:1],,3,3,8<5[8:1],,4,4,8,,2,,
{16}1b-5[8:1],,7,7,1<6[8:1],,6,6,1>4[8:1],,5,5,1,,7,,
{4}1/8bh[4:1],
{16}1,2,38,4,
{4}5/8bh[4:1],
{16}2,3,48,5,
{4}6/8bh[4:1],
{16}1,2,38,4,
{8}5/8b,
{16}7,6,7,6,7,,
{4}8/1bh[4:1],
{16}8,7,61,5,
{4}4/1bh[4:1],
{16}7,6,5/1qq5[8:5],4,
{4}3/1bh[2:1],,,
{8}4qq5[4:3],6,
{8}8b,,,7,6-2[8:1],,
{8}6,,,,6pp5[4:3],5,
{8}4
,,,3,4-8[8:1],,
{8}4,,,,2q5[4:3],6,
{4}8,7,6-1[8:1],
{8}6,,,,4,3,
{16}2h[1:1]/B7,B6,B5,B4,B3,,E8,E7,E6,E5,E4,,
{16}8,7,6,5,4,,
{8}2,5pp4[4:3],3,
{8}1
,,,2,3-7[8:1],,
{8}3,,,,3qq4[4:3],4,
{8}5
,,,6,5-1[8:1],,
{8}5,,,,7p4[4:3],3,
{4}1,2,3-8[8:1],
{8}3,,,,46,46,
{8}1b/5b,3b/7b,,4b/8b,2b/6b,,
{16}37,6,5,4,1,2,3,4,6,7,8,1,
{8}2-6[8:1]/3h[4:1],,2,4,5/7p4[8:3],,
{8}5,4,3,2,1v7[8:1]/5v3[8:1],15,
{8}15,,4,38,2q5[4:1],6,
{8}27,,,8,1h[8:1]/5h[8:1],,
{16}5xp3[4:1]/1,8,7,6,5/3>6[16:3],,,,4x,,4x,,
{16}5xq7[4:1]/1,2,3,4,5/7>4[16:3],,,,6x,,6x,,
{16}5xh[1:1]/B7,B8,B1,B2,B3,,E7,E8,E1,E2,E3,,
{16}6,7,8,1,2,,
{8}5,46,37,
{8}28,56,,17,34,,
{8}28,37,4>7[4:1]/6,,47,6,
{8}5-1[8:1],,5,2V48[16:3],8,2,
{8}5,
{16}7,1,7,1,
{32}7,6,
{16}5,2-4[12:1],8,2,8,
{16}2-8[12:1],,,5,
{8}2-6[8:1],7,5-1[8:1]/2-5[8:1],,
{8}25,,48,3,26,15,
{8}3b/8b,5b/6b,,1b>5[8:1]/6b,3b/4b,,
{32}6x,7xh[32:23],8x,1x,2x,3x,4x,5x,E6,E7,E8,E1,E2,E3,E4,E5,B5,B6,B7,B8,B1,B2,B3,B4,
{4}Ch[8:1],
{16}7,5,6,5,6,5,6,5,7-3[6:1],6,7,6,
{4}8>4[4:1],4<8[4:1]/8-4[6:1],8>4[4:1],3,
{8}8-4[6:1],8,8V26[4:1],5,8V64[4:1],7,8V24[6:1],1,
{4}8,
{16}5h[8:1],,2,2,6h[8:1],,3,3,7h[8:1],,4,4,
{32}8b-4[6:1],7,6,5,
{8},
{4}8/1<5[4:1],5>1[4:1]/1-5[6:1],1<5[4:1],
{4}6,1,
{16}7,3,4,3,7,3,4,3,
{8}1,1,
{16}1,3,1,3,8,2,8,2,7-4-8[4:1],1,6,8,
{8}7,3,1-5-2[4:1],,5,6,8-4[8:1],,
{4}4b/8b,1V35[6:1]/5V71[6:1],1b/5b,2v4[8:1]/6v8[8:1],
{4}2b/6b,1-5[8:1],1b/5b,
{16}8,4,7,3,
{8}6/2-4[12:1],5,62,7,2/8-6[12:1],1,28,3,
{8}4/7-5[12:1],3,27,1,8/2-4[12:1],7,62,
{16}5,6,
{8}7/1-5[8:1],8,13,2,6/3-1[12:1],
{16}4,5,
{8}3,6,
{8}2/7-5[12:1],
{16}8,1,
{8}7,2,34,
{16}6,5,6,5,6,5,
{8}4/7-4[8:1],3,27,1,8/3-8[8:1],7,63,5,
{8}4/2-6[8:1],5,62,7,2/8-4[8:1],1,2,3,
{16}2,5,3,6,4,7,3,8,2,7,1,6,2-6[8:1],5,3,4,
{4}2,
{16}7,4,6,3,5,2,6,1,7,2,6,3,
{8}25,25,15,26,26,37,48,51,
{8}51,48,48,37,37,26,15,48,
{16}1,5,2,6,3,7,4,8,3,7,2,6,1,5,8,4,
{24}1,2,3,7,6,5,2,3,4,8,7,6,1,2,3,7,6,5,8,7,6,2,3,4,
{8}15,15,26,37,37,26,15,84,
{8}84,15,26,37,37,26,15,48,
{16}5,1,6,2,7,3,8,4,
{32}7,6,5,4,3,2,1,8,7,6,5,4,3,2,1,8,
{4}7-3[2:1]/3,,,
{4}1p3p5p7p1[4:22],,,
{4},,,
{4},,,
{4},,,
{4},,,
{4},,,
{4},,,
{4},,,
{4}8-5[2:1],,,
{4}4-1[2:1],,,
{4}7-2[2:1],,,
{4}3-6[2:1],,,
{8}8,7,6,5,4,3,
{8}1,2,3,4,5,6,
{4}1-5[4:1],,,
{16}62,3,4,5,8,7,6,5,3,2,1,8,
{8}7-3[8:1]/6h[4:1],,,
{16}5,5,2,8,3,7,
{16}2,6,1,5,8,6,3,5,
{24}2,3,4,8,7,6,
{16}1,5,2,6,3,7,4,8,5,7,2,8,
{16}1,7,3,4,2,8,5,6,
{8}2,34,
{16}1,2,8,7,2,3,7,6,3,4,6,5,
{16}2,2,7,7,3,3,6,6,4,4,5,5,
{24}1b,2,3,
{16},7,
{24}7/2b,3,4,
{8}8,
{24}8/3b,4,5,
{8}8,
{32}8x/4x,7x/3x,6x/2x,5x/1x,
{16}4x/8x,E6,E7,E8,E1,E2,E3,E4,E5,E6,
{8}3b/7x,3x/7b,
{16}2,8,4,6,1,7,3,5,
{8}6b/2x,6x/2b,
{16}7,1,5,3,8-4[8:1],2,6,4,
{16}8,,1-6[8:1],2,3,4,1,,5-8[8:1],4,3,2,
{16}5,,1-6[8:1],2,3,4,1,,5-8[8:1],4,3,2,
{8}5/1-4[8:1],1,1,7,2/6-1[8:1],5,
{8}6/2-5[8:1],2,2,8,37,4,
{8}15,15,C,37,3-8[8:1]/7-4[8:1],C,
{4},,,
{16}3b/5b,,4,4,4,,4,4,4,,4,4,
{16}3b/5b,,4,4,4,,4,4,4,,4,4,
{16}3b/5b,,4,4,4,,4b,4,4,,4,4,
{16}3b/5b,,4,4,4,,4b,4,4,,3b/5b,,
{16}8,7,1,2,7,6,2,3,6,5,3,4,
{16}6,6,3,3,7,7,2,2,8,8,1,1,
{32}8b,7,6,5,
{16}3,4,3,4,
{32}2b,3,4,5,8b,7,6,5,
{16}1,1,
{32}6b,5,4,3,2,1,8,7,6/2,3,4,5,6,7,8,1,2/5,4,3,2,1,8,7,6,
{24}4,5,4,5,4,5,3,6,3,6,3,6,2-6[12:1]b,7-3[12:1],2,7,2,7,
{4}2b/Cf,,,
{8}8-5[8:1],1,28,3,4-1[8:1],5,64,7,
{8}8-4[8:1],4-8[8:1],84,3,2,2,
{16}7,1,5,3,
{8}6-2[8:1],6/2-6[8:1],62,3,4-8[8:1],8-4[8:1],48,7,
{8}6-1[8:1],1-5[8:1],5-2[8:1],2V86[4:1],3x,3x,2x,2x,
{4}5-7[12:1]/1-3[12:1],5b-3[12:1]/1b-7[12:1],5b/1b-5[8:1],,
{8}4b^1[8:1]/8b^5[8:1],,4b/8bs4[16:3],,4b,4b-8[8:1],,4b/8b,
{24}7x,6,5,4,3,2,1-5[8:1],8,7,6,5,4,3x/1x,4,5,6,7,8,1,2,3,4,5,6,
{24}7x/1x,2,3,4,5,6,7-3[8:1],8,1,2,3,4,7x/5x,4,3,2,1,8,7,6,5,4-8[8:1]b,3,2,
{8}1,C,,,,,,4^5[8:56],
{1},,,
{8},,,,,,,A5,
,E
&inote_6=||
和
MAS
内容完全一致,唯一的区别是增加了
(192.00001)
和
(191.99999)
用来修改小节线行为。
(192)
{1},
{4},,,
{8}2-5[8:1]b/6pp5[1:1],62,
{2}62,4h[4:1],
{4}3h[4:1],,26,7-4[8:1]b/3qq4[1:1],
{1}37,
{4}6h[4:1],,72,1-4[8:1]b/6p4[1:1],
{2}61,1h[4:1],
{4}3h[4:1],,27,8-5[8:1]b/3q5[1:1],
{2}38,8h[4:1],
{4}6h[4:1],,83,2-6[8:1]b/6>6[2:1],
{4}62,,3,1>1[2:1]/6-2[8:1]b,
{4}16,,5,3<3[2:1]/7-3[8:1]b,
{4}37,,5,8-4[8:1]b/4,
{8}82,2h[4:1],,,
{24}17,6,5,
{8}1h[4:1]/4,,,
{8}8-4[8:1]/6,,38,2-6[8:1],,27,8-5[8:1],,
{8}38,2-5[8:1],,82,1-5[8:11],,,
{16}3,7,3,7,3,7,3,7,2,8,2,8,2,8,2,8,1,,
{1},
{8}5,1,8,2,7,3,6,4,
{8}7,1,6,2,5,3,
{16}8,7,6,5,
{8}3,8,1,7,2,6xh[8:1],3xh[8:1],5xh[8:1],
{8}2,8,3xh[8:1],7xh[8:1],4xh[8:1],6,
{16}1,2,3,4,
{4}5-3[12:1]/1-7[12:1],5b-7[12:1]/1b-3[12:1],5b/1b-5[8:1],,
{8}4b^1[8:1]/8b^5[8:1],,4b/8bs4[16:3],,4b,4bz8[16:3],,4b/8b,
{8}8,,
{12}26,26,26,,,,48,8,8,
{12}37,3,3,26,6,6,
{24}1,5,1,5,1,5,
{16}2,6,3,7,
{16}48,,4,6,4,,4,1,4,,4,7,4,,4,8,
{16}3,7,3,6,3,5,3,4,3,2,3,1,3,8,3,7,
{32}2b-6[8:1],3,4,5,
{8},27,
{16}7,5,7,,7,1,7,,7,4,
{16}7,,7,2,7,,73,,15,,1-5[8:1],7,1,,3h[8:1],,
{16},,6,4,6,,6,8,6,,6,3,6,,6,1,
{16}7,2,7,3,7,4,7,5,7,6,7,8,7,1,7,2,
{12}6h[12:1],4,5,1h[12:1]b,3,2,8h[12:1]b,6,7,2h[12:1]b,4,3,
{16}6b,5,6,5,7,4,7,4,8,3,8,3,1,2,1,2,
{32}8b-4[8:1],7,6,5,
{16}2,2,8-3[8:1],,3,3,8-5[8:1],,4,4,8,,2,,
{16}1b-5[8:1],,7,7,1-6[8:1],,6,6,1-4[8:1],,5,5,1,,7,,
{24}8b-4[8:1],E8,E7,
{16}E6,,8>3[8:1],,3,3,8<5[8:1],,4,4,8,,2,,
{16}1b-5[8:1],,7,7,1<6[8:1],,6,6,1>4[8:1],,5,5,1,,7,,
{4}1/8bh[4:1],
{16}1,2,38,4,
{4}5/8bh[4:1],
{16}2,3,48,5,
{4}6/8bh[4:1],
{16}1,2,38,4,
{8}5/8b,
{16}7,6,7,6,7,,
{4}8/1bh[4:1],
{16}8,7,61,5,
{4}4/1bh[4:1],
{16}7,6,5/1qq5[8:5],4,
{4}3/1bh[2:1],,,
{8}4qq5[4:3],6,
(192.00001)
{8}8b,,,7,6-2[8:1],,
(191.99999)
{8}6,,,,6pp5[4:3],5,
(192.00001)
{8}4
,,,3,4-8[8:1],,
(191.99999)
{8}4,,,,2q5[4:3],6,
(192.00001)
{4}8,7,6-1[8:1],
(191.99999)
{8}6,,,,4,3,
(192.00001)
{16}2h[1:1]/B7,B6,B5,B4,B3,,E8,E7,E6,E5,E4,,
(191.99999)
{16}8,7,6,5,4,,
{8}2,5pp4[4:3],3,
(192.00001)
{8}1
,,,2,3-7[8:1],,
(191.99999)
{8}3,,,,3qq4[4:3],4,
(192.00001)
{8}5
,,,6,5-1[8:1],,
(191.99999)
{8}5,,,,7p4[4:3],3,
(192.00001)
{4}1,2,3-8[8:1],
(191.99999)
{8}3,,,,46,46,
(192.00001)
{8}1b/5b,3b/7b,,4b/8b,2b/6b,,
(191.99999)
{16}37,6,5,4,1,2,3,4,6,7,8,1,
(192.00001)
{8}2-6[8:1]/3h[4:1],,2,4,5/7p4[8:3],,
(191.99999)
{8}5,4,3,2,1v7[8:1]/5v3[8:1],15,
(192.00001)
{8}15,,4,38,2q5[4:1],6,
(191.99999)
{8}27,,,8,1h[8:1]/5h[8:1],,
(192.00001)
{16}5xp3[4:1]/1,8,7,6,5/3>6[16:3],,,,4x,,4x,,
(191.99999)
{16}5xq7[4:1]/1,2,3,4,5/7>4[16:3],,,,6x,,6x,,
(192.00001)
{16}5xh[1:1]/B7,B8,B1,B2,B3,,E7,E8,E1,E2,E3,,
(191.99999)
{16}6,7,8,1,2,,
{8}5,46,37,
(192.00001)
{8}28,56,,17,34,,
(191.99999)
{8}28,37,4>7[4:1]/6,,47,6,
(192.00001)
{8}5-1[8:1],,5,2V48[16:3],8,2,
(191.99999)
{8}5,
{16}7,1,7,1,
{32}7,6,
{16}5,2-4[12:1],8,2,8,
(192.00001)
{16}2-8[12:1],,,5,
{8}2-6[8:1],7,5-1[8:1]/2-5[8:1],,
(191.99999)
{8}25,,48,3,26,15,
(192.00001)
{8}3b/8b,5b/6b,,1b>5[8:1]/6b,3b/4b,,
(191.99999)
{32}6x,7xh[32:23],8x,1x,2x,3x,4x,5x,E6,E7,E8,E1,E2,E3,E4,E5,B5,B6,B7,B8,B1,B2,B3,B4,
(192)
{4}Ch[8:1],
{16}7,5,6,5,6,5,6,5,7-3[6:1],6,7,6,
{4}8>4[4:1],4<8[4:1]/8-4[6:1],8>4[4:1],3,
{8}8-4[6:1],8,8V26[4:1],5,8V64[4:1],7,8V24[6:1],1,
{4}8,
{16}5h[8:1],,2,2,6h[8:1],,3,3,7h[8:1],,4,4,
{32}8b-4[6:1],7,6,5,
{8},
{4}8/1<5[4:1],5>1[4:1]/1-5[6:1],1<5[4:1],
{4}6,1,
{16}7,3,4,3,7,3,4,3,
{8}1,1,
{16}1,3,1,3,8,2,8,2,7-4-8[4:1],1,6,8,
{8}7,3,1-5-2[4:1],,5,6,8-4[8:1],,
{4}4b/8b,1V35[6:1]/5V71[6:1],1b/5b,2v4[8:1]/6v8[8:1],
{4}2b/6b,1-5[8:1],1b/5b,
{16}8,4,7,3,
{8}6/2-4[12:1],5,62,7,2/8-6[12:1],1,28,3,
{8}4/7-5[12:1],3,27,1,8/2-4[12:1],7,62,
{16}5,6,
{8}7/1-5[8:1],8,13,2,6/3-1[12:1],
{16}4,5,
{8}3,6,
{8}2/7-5[12:1],
{16}8,1,
{8}7,2,34,
{16}6,5,6,5,6,5,
{8}4/7-4[8:1],3,27,1,8/3-8[8:1],7,63,5,
{8}4/2-6[8:1],5,62,7,2/8-4[8:1],1,2,3,
{16}2,5,3,6,4,7,3,8,2,7,1,6,2-6[8:1],5,3,4,
{4}2,
{16}7,4,6,3,5,2,6,1,7,2,6,3,
{8}25,25,15,26,26,37,48,51,
{8}51,48,48,37,37,26,15,48,
{16}1,5,2,6,3,7,4,8,3,7,2,6,1,5,8,4,
{24}1,2,3,7,6,5,2,3,4,8,7,6,1,2,3,7,6,5,8,7,6,2,3,4,
{8}15,15,26,37,37,26,15,84,
{8}84,15,26,37,37,26,15,48,
{16}5,1,6,2,7,3,8,4,
{32}7,6,5,4,3,2,1,8,7,6,5,4,3,2,1,8,
(192.00001)
{4}7-3[2:1]/3,,,
(191.99999)
{4}1p3p5p7p1[4:22],,,
(192.00001)
{4},,,
(191.99999)
{4},,,
(192.00001)
{4},,,
(191.99999)
{4},,,
(192.00001)
{4},,,
(191.99999)
{4},,,
(192.00001)
{4},,,
(191.99999)
{4}8-5[2:1],,,
(192.00001)
{4}4-1[2:1],,,
(191.99999)
{4}7-2[2:1],,,
(192.00001)
{4}3-6[2:1],,,
(191.99999)
{8}8,7,6,5,4,3,
(192.00001)
{8}1,2,3,4,5,6,
(191.99999)
{4}1-5[4:1],,,
(192.00001)
{16}62,3,4,5,8,7,6,5,3,2,1,8,
(191.99999)
{8}7-3[8:1]/6h[4:1],,,
{16}5,5,2,8,3,7,
(192.00001)
{16}2,6,1,5,8,6,3,5,
{24}2,3,4,8,7,6,
(191.99999)
{16}1,5,2,6,3,7,4,8,5,7,2,8,
(192.00001)
{16}1,7,3,4,2,8,5,6,
{8}2,34,
(191.99999)
{16}1,2,8,7,2,3,7,6,3,4,6,5,
(192.00001)
{16}2,2,7,7,3,3,6,6,4,4,5,5,
(191.99999)
{24}1b,2,3,
{16},7,
{24}7/2b,3,4,
{8}8,
{24}8/3b,4,5,
{8}8,
(192.00001)
{32}8x/4x,7x/3x,6x/2x,5x/1x,
{16}4x/8x,E6,E7,E8,E1,E2,E3,E4,E5,E6,
(191.99999)
{8}3b/7x,3x/7b,
{16}2,8,4,6,1,7,3,5,
(192.00001)
{8}6b/2x,6x/2b,
{16}7,1,5,3,8-4[8:1],2,6,4,
(191.99999)
{16}8,,1-6[8:1],2,3,4,1,,5-8[8:1],4,3,2,
(192.00001)
{16}5,,1-6[8:1],2,3,4,1,,5-8[8:1],4,3,2,
(191.99999)
{8}5/1-4[8:1],1,1,7,2/6-1[8:1],5,
(192.00001)
{8}6/2-5[8:1],2,2,8,37,4,
(191.99999)
{8}15,15,C,37,3-8[8:1]/7-4[8:1],C,
(192.00001)
{4},,,
(191.99999)
{16}3b/5b,,4,4,4,,4,4,4,,4,4,
(192.00001)
{16}3b/5b,,4,4,4,,4,4,4,,4,4,
(191.99999)
{16}3b/5b,,4,4,4,,4b,4,4,,4,4,
(192.00001)
{16}3b/5b,,4,4,4,,4b,4,4,,3b/5b,,
(191.99999)
{16}8,7,1,2,7,6,2,3,6,5,3,4,
(192.00001)
{16}6,6,3,3,7,7,2,2,8,8,1,1,
(191.99999)
{32}8b,7,6,5,
{16}3,4,3,4,
{32}2b,3,4,5,8b,7,6,5,
{16}1,1,
(192.00001)
{32}6b,5,4,3,2,1,8,7,6/2,3,4,5,6,7,8,1,2/5,4,3,2,1,8,7,6,
(191.99999)
{24}4,5,4,5,4,5,3,6,3,6,3,6,2-6[12:1]b,7-3[12:1],2,7,2,7,
(192.00001)
{4}2b/Cf,,,
(192)
{8}8-5[8:1],1,28,3,4-1[8:1],5,64,7,
{8}8-4[8:1],4-8[8:1],84,3,2,2,
{16}7,1,5,3,
{8}6-2[8:1],6/2-6[8:1],62,3,4-8[8:1],8-4[8:1],48,7,
{8}6-1[8:1],1-5[8:1],5-2[8:1],2V86[4:1],3x,3x,2x,2x,
{4}5-7[12:1]/1-3[12:1],5b-3[12:1]/1b-7[12:1],5b/1b-5[8:1],,
{8}4b^1[8:1]/8b^5[8:1],,4b/8bs4[16:3],,4b,4b-8[8:1],,4b/8b,
{24}7x,6,5,4,3,2,1-5[8:1],8,7,6,5,4,3x/1x,4,5,6,7,8,1,2,3,4,5,6,
{24}7x/1x,2,3,4,5,6,7-3[8:1],8,1,2,3,4,7x/5x,4,3,2,1,8,7,6,5,4-8[8:1]b,3,2,
{8}1,C,,,,,,4^5[8:56],
{1},,,
{8},,,,,,,A5,
,E
