&title=Cosmic Train
&artist=Shoichiro Hirata feat.SUIMI
&first=0
&des=ARIES
&lv_6=13
&inote_6=(130){1},
{16}4-7[8:2],,,6,,,8-3[8:2],,,2,,,,,,,
{16},,1,,,3,,,5,,,7,,,1,,
{16}1-4[8:2],,,3,,,5-8[8:2],,,7,,,,,,,
{16},,8,,,6,,,4,,,2,,,8,,
{16}8-3[8:2],,,2,,,4-7[8:2],,,6-3[8:2],,,,,,,
{16},,2,,,8,,,6,,,4,,,5,,
{16}5-2[8:2],,,4,,,3,,,1-6[8:2],,,8,,,7-3[16:9],,,,,
{4},,
{8}1b,4,5^2[8:1],6,,4,5-2[8:1],6,,4,5-1[8:1],6,,
{8}7,7^2[8:1],5,7,
{8}5,4^7[8:1],3,,5,4-7[8:1],3,,5,4-8[8:1],3,,
{8}2,2^7[8:1],6,2,
{8}4,5^2[8:1],6,75,4,5-2[8:1],6,75,4,5-1[8:1],6,75,
{8}8^3[8:1],7-4[8:1],8,7,
{8}8,1^6[8:1],2,31,8,1-6[8:1],2,31,8,1-5[8:1],2,1/4-7[8:1],3,
{8}1^6[8:1],2^5[8:1],,,
{4}7h[8:8],6,5,4,3h[8:8],2,1,8,7^2[8:4],6,5,4,
{4}3^6[8:5],,8-5[8:1],,
{4}7h[8:8],6,5,4,3h[8:8],2,1,8,7^2[8:4],6,5,4,
{4}3^6[8:5],2,1^4[8:1],,
{8}6-1[8:1]/4,,3,3,8-5[8:1],2,3,4h[8:1],
{8}6-1[8:1],3h[8:1],,2h[8:1],8-5[8:1],3,,,
{8}3/4-7[8:1],,2,2,8-5[8:1],1h[8:1],,2,
{8}4-1[8:1],,4-7[8:1],,8-4[8:1],,,,
{8}3-8[8:1]/5,,6,6,1-4[8:1],7,6,5h[8:1],
{8}3-8[8:1],6h[8:1],,7h[8:1],1-4[8:1],6,,,
{8}6/5-2[8:1],,7,7,1-4[8:1],8,7,6^3[8:1],
{8},2,1-4[8:1],8-5[8:1],,,1-5[8:6],,
{8}2h[8:2]/1,,,3h[8:2],,,4-8[8:6],,
{8}5h[8:2]/4,,,6h[8:2],,,7-3[8:6],,
{8}8h[8:2]/7,,,1h[8:2],,,2-6[8:6],,
{8}3h[8:2]/2,,,4h[8:2],,,
{4}5-2[8:2],2-7[8:2],7-4[8:2],4-8[8:4],,,
{8},6,7,8,1,2^7[8:12],
{16},5h[8:1],,,4h[8:1],,,5h[8:1],,,4h[8:1],,,5h[8:1],,,4h[8:1],,,5h[8:1],,,4h[8:1],,,5h[8:1],,,1-4[8:1]/7b,,,,
{8}1/5^2[8:1],,1-5[8:1]/5,7,1/5^2[8:1],,1-6[8:1]/5,7,15,,
{8}67,58,1-5[8:1]/4^7[8:1],23,14,,
{8}8-5[8:1]/4,,8/4^7[8:1],2,8-5[8:1]/4,,8/4^7[8:1],2,8/4,,
{8}1-6[8:1]/5,2,4-7[8:1]/1,3,14,2,4/1^6[8:1],
{8},41,5,8^3[8:1],,58,4,1,,
{8}7-4[8:1],8-3[8:1],7,8,,
{8}6,6^3[16:3],4^1[16:3],2^7[16:3],8^5[16:3],,
{8}3,3-7[8:1],,4-8[8:1],,5-1[8:1],,6-2[8:1],,4-1[8:1],,
{8}4/3-7[8:1],,3/8-5[8:1],1,8/3-7[8:1],,3/4-1[8:1],5,43,,
{8}32,41,8-4[8:1]/5^2[8:1],76,85,,
{8}3/7-3[8:1],,7/4-1[8:1],5,4/7-3[8:1],,7/8-5[8:1],1,87,,
{8}8-3[8:1]/4,7,5-2[8:1]/8,6,85,7,5/8^3[8:1],
{8},58,4,1^6[8:1],,51,3,8,,
{8}2^5[8:1],1^6[8:1],2,1,,
{8}2,2^7[8:1],,5,5^2[8:1],,
{8}8-4[8:7],8^5[8:1],,,,,,,,,
{8}6,{32}5/4^7[8:1],3,2,,{8},43,
{8}5,{32}5/4-7[8:1],3,2,,{8},43,
{8}5,{32}5/4-8[8:1],3,2,,{8},43,
{8}1,1^4[8:1],7,1,
{8}5,{32}4/5^2[8:1],6,7,,{8},56,
{8}4,{32}4/5-2[8:1],6,7,,{8},56,
{8}4,{32}4/5-1[8:1],6,7,,{8},56,
{8}8-4[8:1],6-1[8:1],8,6,
{8}3,{32}4/3^6[8:1],2,1,,{8},32,
{8}4,{32}5/4-7[8:1],3,2,,{8},43,
{8}5,{32}6/5-1[8:1],4,3,,{8},54,
{8}2,2^7[8:1],4,2,
{8}6,{32}5/6^3[8:1],7,8,,{8},67,
{8}5,{32}4/5-2[8:1],6,7,,{8},56,
{8}4,{32}3/4-8[8:1],5,6,,{8},45,
{8}7,
{8}2^5[8:1],1,8-4[4:7],,7h,,,2h,,,5h,,,1h,,,
