&title=東の国の眠らない夜
&artist=上海アリス幻樂団
&first=2.004
&des=ねむらないおおかみ
&lv_5=14
&inote_4=(150){4}1b,1,1,1,
(152){4}1b,1,1,1,
(154){4}1b,1,1,1,
(148){4}1b,1,(150)1b,(152)1b,
(160)
{4}1b,1,1,1,1,1,1,1,
{4}1,1,1,1,1,1,1,1,
{4}1,1,1,1,1,1,1,1,
{4}1,1,1,1,1,1,1,1,
{4}1,1,1,1,1,1,1,1,
{4}1,1,1,1,1,1,1,1,
{4}1,1,1,1,1,1,1,1,
{4}1,1,1,1,1,1,1,1,
{4}1,1,1,1,1,1,1,1,
{4}1,1,1,1,1,1,1,1,
{4}1,1,1,1,1,1,1,1,
{4}1,1,1,1,1,1,1,1,
{4}1,1,1,1,1,1,1,1,
{4}1,1,1,1,1,1,1,1,
{4}1,1,1,1,1,1,1,1,
{4}1,1,1,1,1,1,1,1,
{4}1,1,1,1,1,1,1,1,
{4}1,1,1,1,1,1,1,1,
{4}1,1,1,1,1,1,1,1,
{4}1,1,1,1,1,1,1,1,
{4}1,1,1,1,1,1,1,1,
{4}1,1,1,1,1,1,1,1,
{4}1,1,1,1,1,1,1,1,
{4}1,1,1,1,1,1,1,1,
(156)
{4}1b,1,1,1,1,1,1,1,
{4}1,1,1,1,1,1,1,1,
{4}1,1,1,1,1,1,1,1,
{4}1,1,1,1,
(154)
{4}1b,1,1,1,
(160)1b,1,1,1,1,1,1,1,
{4}1,1,1,1,1,1,1,1,
{4}1,1,1,1,1,1,1,1,
{4}1,1,1,1,1,1,1,1,
{4}1,1,1,1,1,1,1,1,
{4}1,1,1,1,1,1,1,1,
{4}1,1,1,1,1,1,1,1,
{4}1,1,1,1,1,1,1,1,
{4}1,1,1,1,1,1,1,1,
{4}1,1,1,1,1,1,1,1,
{4}1,1,1,1,1,1,1,1,
{4}1,1,1,1,1,1,1,1,
{4}1,1,1,1,1,1,1,1,
{4}1,1,1,1,
(158)1b,1,1,1,
(160)1b,1,1,1,1,1,1,1,
{4}1,1,1,1,1,1,1,1,
{4}1,1,1,1,1,1,1,1,
{4}1,1,1,1,1,1,1,1,
&inote_5=(150){4}1>1[4:5]/6h[4:7],,,,
(152){4},,,1,
(154){4}1>1[4:2]/6h[4:4],,,,
(148){4}1xw5[2:1]b,(146),(154),(152),
(160){16}4/5-7[8:1],,4/5,,,,2,2,6,3,5,,4,,4/6,,
5/3-1[8:1],,5/3,,,,7,7,2,6,4,5,4,,3/6,,
5/4-1[8:1],,5/4,,,,7,,7V53[4:1],2,2,7,3<3[16:8]b,,2,,
2,,1>7[16:6],,1hx[8:1],,,,8x,1x,2x,3x,4x,5x,6xq4[4:1],7x,
8x,,1xb/6bx,,,,2,2,5-8[8:1],5,3-1[8:1],,5,,3,,
7^5[8:1],,8/2,,,,4x,3x,2x,1x/8x,7x,6x,{32}5x,3x,4xq8[8:1],,,3,4,,
{16}2,,2b^1-4[16:2],,,,2b,,5,5,3,3,6,1,7^4[8:1],,
8,,7xb,,,,3,,6/3,2,1,8,7,6,5,4,
{8}3-8[8:1]/6,2b/7b,6-4[8:1]/3,7,6/2-8[8:1],3,5-7[8:1]/2,6,
1^3[8:1]/5,2,8^6[8:1]/1,7,8/4^2[8:1],3,8^6[8:1]/4,7,
8/1-4[8:1],2,1-6[8:1]/8h[8:1],,1-4[8:1]/2h[8:1],,1-6[8:1]/8h[8:1],,
1-4[8:1]/2,2,1-6[8:1]/8,8,{16}1,2,3,4,5x,{32}4x,3x,2x,1x,8x,7x,
6bx/Cf,,,,8bx/1bx,,,,{8},7/3b,8bV64[4:1],7,4V28[4:1],3,
8V64[4:1],8,4V68[4:1],3,8V24[4:1],1,4V28V64<8[4:3],4,
1x,1x,,2,8V64[4:1],2,4>5[16:7],3,
8<5[16:3]b,B8,C,B4,{16}4x,3x,2x,1x,{32}8x,7x,6x,5x,4x,3x,2x,1x,
{1}8xbp5[4:3]/Cf,
{4},{16}1>7[16:14],,6,,5,,,4^7[16:7],,,6,,
6<2[12:7],,,,,,,,,,,,B7/B6,,C,,
B2/B1,,B4,B5,B6,,B3,,B8/E8,,B1,B2,E3,,E7,,
{1}2-7q5p4[4:3]*-7q5p4[4:3]/E1/A8,
{4},{16}5<3[16:14],,2,,1,,,8^3[16:7],,,2,,
2>4-6-8-2-4-6[3768:5891]b,,,,{4},,,
{8}B5/B4/Ch[8:1],,B7/B6/Ch[8:1],,B1/B8/Ch[8:1],,B3/B2/Ch[8:1],,
7x-1[8:1]/8x-4[8:1],,,,8x-5[8:1]/4xv5[8:1],,,,
5x-8^1-4^5[3:1]/1x,,,,{16},,,2xqq5[3:1],,,E4,,
4bx,,,,{4},2xV86qq5[4:3]/7xhb[4:1],,
7xh[4:1],,{8}7-5[8:1],,7,,
7xV15-3[4:1],,,,1xq8[4:1],,,,
5xV73-1[4:1]b,,,,,{16},3,,,2,,
8bh[8:3]/1bh[8:3],,{8},,,8b-5[8:1]b/1b-4[8:1]b,,8b/1b,,
{16}6bx,4,6,4,5b,3,7,4,5b,3,7,1,5b,8x,{32}5bx/1xs5[8:7]*s5[8:7],6x/2x,7x/3x,8x/4x,
1xbh[4:5]/5xb,,{4},,,{16},,,
,,,,,,1,2,3,4/5,6,7,{32}8x,2x,1-6[8:1],,,2,1,,
{16}3,,3^8[16:2],,E8,,3,7,6,5,4,3,2/C,,1/2,,
7/8,,1b-5[8:1]/8bh[8:1],,,,1,,6,7,8,1,5,4,3,2,
5/1b-3[8:1],,5b/1,,,,6,6,2,5,3,5,3,,4/6-3[8:1],,
3-7-4[4:1]/5,,4/6,,,,A3,A2,A1,A8,A7,A6,{32}A5,8x-4[8:1],4xh[32:3],,,,8hx[16:1],,
{8},B4f,E3,{16}3,,3,4,3-8[8:1],5,2,,3^6[8:1],,
4,,3,,8,,8,,7/1,6,5,4/1,{32}2-6[8:1],3,4,5,6-2b[8:1],7,8,1,
{16}6x/2x,,A6f/8xb,,{16}7v4[8:1],,1,1,2^5[8:1],1,8,,6q2[8:1],,7,,
4,,3h[4:1],,8-5[8:1],,7,4,3,2,1,8,7v5[8:1],6,5,4,
3b/7,,2-6[8:1],,1,,7-1[8:1],,8,8,5-2[8:1],4,3,,8<8[2:1],,
7,,8,,2<6[4:1]b,,2,,4,3,2,1,8,7,6,5,
4,,8b,,{16}8x-4[8:1],,1-3[8:1],8,8x-6[8:1],1,1-5[8:1],,8qq4[4:1]b,,1-3[8:1],,
8,,1xb,,,,2,5,3x,4,3,5,4x-1[8:1],6,3-7[8:1],5h[16:1],
4b,,3x^8[8:1],,,,3b,,7,7,6-2[8:1],6,5,,6V84[4:1],,
5,,6xb-2[8:1],,5,,6xb,,A4,A3,A2,A1,A8,A7,A6,A5,
(156){4}8-4[8:1],,3^8[8:1],,
7^5[8:1],,{16}4,5,4,5,4,3,2,1,
{4}8h[8:1]/5h[4:1],,{16}1,8,2,7,3,6,4,5,
3,5,2,5,1,5,2,5,2,6,2,7,2,8,2,1-5[16:13]b,
{16}2h[8:1],,,,2h[16:1],,2,,3h[8:1],,,,3h[16:1],,3,,
4b,,,,{16},,2,5,3,7,4,1,5,7,3,6,
7h[8:2]/3h[8:3],,{4},{8},{6}5b/4,1/2b,8/7b,
(154){16}8x/1,7,6,5/7x,6,5,4/8x,7,6,5/1x,8,7,6bx/8x,7,6,5,
(160)1b,,1/7,,2/6x,,3,4,3,5,4,,2/6x,,2/8,,
1b/2,,7/3,,2/6x,,1,5,2,6,3,7,8xh[32:1]/4p8[8:1],,8^3[8:1]/4h[32:1],,
4,,5b^8[6:1],,5x,,5,,4,3,2,1,{32}8x,7x,,,6x,5x,,,
3/4,,,,{16}1v4[8:1]/2v4[8:1],,3x/8x,,,,3x,2x,1x,8,7x,6,5,4,
3/7-5[8:1],,1b/6,,7x/2,,2,4,8,2,6,,2xh[8:1],,6h[8:1],,
8-4[8:1],,4h[8:1],,8x,,6,6,8,4,2,6,{32}4x,8x,,,2x-6^8[4:1],6x,,,
3x/7x{16},,8b-4^6[4:1]/2,,D7f,,6x<4[8:3],,D5,D6,D7,D8,{32}D1,A1,D2,,D3,,{16},
5b,,5-8[8:1],,5b,4,5b,,4b,,4,,{32}4,5,4,5,6-2[8:1],7,8,1,
{16}2b,,6b,Cf,,,{16}1^3[8:1],8,8,1,1-4[8:1],,7,,1-5[8:1],,
6,,1,,7,,{32}1,D2,A2,D3,8/A3,D8,A7,D7,A6/1-4[8:1],B1,C,B5,A5,,,,1,,{16},
8b,,8b-5[8:1],,,,8-4[8:1],,1,1,8^6[8:1],2,2,,8-5[8:1],,
3,,1b^3[8:1]/8,,,,1,,8,1,2,3,4,5/1,6/2,7/3,
8/4,,8b/4hb[8:1],,,,{16}2,6,1-5[8:1],7,8-4[8:1],,1b^4[8:1],,8b^5[8:1],,
1b,,8b,,,,1^4[8:1],8,8-5-7[4:1],1,1-4-2[4:1]b,,8,,1,,
,,,,,,7,,8-5[8:1],8,8-3[8:1],8,8-4-8[2:1]b,,,,
8xb,,,,,,3,,3,2,1,8,7qq5[8:1],6,5w1[8:1],4,
3/7b,,,,,,2x-4[8:1],5,4p1[4:1],7,2,,1^4[8:1],,8^5[8:1],,
7,,8b,,,,2-8[8:1],5,8-4[8:1],4,4-1-3[4:1],,5,,7b-3[8:1]b,,
6,,7b,,,,7-3[8:1],,3-7[8:1],3,7^4[8:1],4,4>8[6:1],,1^7[8:1],,
2h[8:1],,,,,,2b,,7>3[16:4]b,8>3[16:3],1>3[16:2]b,2>4[16:2],7,,8xw4[8:1],,
8,,8b,,,,3x/7x,2/6,1h[8:1]/5,6,7,,{32}8x,1x,2x,,7x,6x,5x,,
8x,7x,6x,,1x,2x,3x,,{16},,1,2,3,5,6,7,{32}1x-4[8:1],2,3,,5x-8[8:1],6,7,,
1b,,,,{16}5b-2[8:1],,,,5,,6,6,7,7,{32}8x,1,2,,7x,6,5,,
3x,2,1h[4:1],,{16}8-3[8:1],,7^4[8:1],,,,,2,1,8,7x/6x,{32}5x,4,3,2,1,8<2>8[32:53],
{8}Cf,,,1,,,1,,
1h[4:3],{4},,{8},{32},2x,3x,4x,,,,,
(158){8}4>6[8:7],,,5,,,5,,
(160)5-1[4:1]b,,,4,4,{16}3,2,{32}1/8,7,6,5,,,,,
{16}6-1[8:1]/1,,6/1-5[8:1],,,,4,3,2,1,8,,{8}5-8[8:1],5-2[8:1],
5x,5x,,{16}3,2,3,4,3,2,3-8[8:1],,3-5[8:1],,
{8},,,{16}8^5[8:1],,8,1,2,3,4-8[8:1],,4-7[8:1],,
4,,,,,,3/7x,,7,8,1,2,3-7[8:1],4,5-1[8:1],6,
3b,,5b,{16},,,2,2,6,3,5,,5/3-1[8:1],,4/6p4[4:1],,
3,,6,,,,2,2,7,3,6,3,5-1[8:1]/4h[32:1],,6h[32:1]/3-8[8:1],,
5,,3,,,,2,,2V46[4:1],7,7,2,6>6[16:8]b,,7,,
7,,8<2[16:6],,8hx[8:1],,,,B1,B7,B5,B3,B7/B8,B6/B5,B4/B3,B1/B2/Cf,
