&title=Arcana Eden
&artist=Team Grimoire vs Sakuzyo vs Laur
&first=0
&lv_5=14
&des=えども~ん
&inote_5=
(211){1},,
{24}2h[24:12]/6h[24:12],,,
,,,
,,,
,,,
{20},37,48,51,26,
,,,,,
{4}4/6h[4:2],2,3,{8}4,5,{4}4-1[2:1],3,5,7,
{4}3h[4:2]/5,7,5,{8}4,2,{4}6v1[2:1],7,5,3,
{24}8b/2b,3/7p2[4:3],46,{8}5h[8:13],{4},,,,,1,1,
{24}1b/7b,26,3p6[4:3]/5,{8}4h[8:13],{4},,,,,1,1,
{24}1b/2b,38,4/7p2[2:1],{8}5/6h[8:5],{4},,,
{24}7b/8b,16,5/2q7[2:1],{8}4/3h[8:5],{4},,,
{24}1b/8b,27,36,{8}5h[8:5]/4,{4},6,7,
{24}8b/4b,15,26,{8}3h[8:3]/7h[8:3],{4},{24},48,51,{8}62,{4},
{8}1/7h[4:2],,8,,6,,5h[8:1],6h[8:1],
4h[4:3],,3,,2,,3,,
{8}5/3h[4:2],,4,,6,,7h[8:1],8h[8:1],
6h[4:3],,7,,1,,7,,
{8}6/4h[4:2],,3,,2,,3h[8:1],4h[8:1],
2h[4:1],,5,,7,,1z5[8:1]/2s6[8:1],,
{4},,,,2h[4:1]/7h[4:1],,1h[4:1]/8h[4:1],,{32}1b>8[4:21]/8b<1[4:21],2b/7b,3b/6b,4b/5b,
,,,,{4},,,{1},,,,,
{4}1b-5[4:6],,,,
,,8-4[8:1],,
{8}3V52[4:1]/7,,6,8V61[4:1],,1-5[4:1],2,3,,4,{16}4,,,2V48[4:1]/6,{8},5,7b,,
{8}6,4,35,6,{16}1V37[16:3],,,7V58[16:3],,,8-4[8:1],,{8},,5,5,,{16}2,1,2,,37,,
{8}6-1[8:1]/4,,3,5V38[4:1],,8-4[8:1],7,6,,8,{16}71,,,3/6V48[4:1],{8},4,2,,
{8}1-5[8:1]/7-3[8:1],,1b/7b,,,1,7,16,,4,{16}8,,3,3,1,,7,5,,2,4,,
{4}8q3[4:1]*p5[4:1],8b,,78,{16}26,3,4,5,61,8,7,6,5-8[8:1]/1-4[8:1],,,,1b/5b,,,,
{8}6,6,1>5[4:1],1,5qq6[3:1],,8,,7-3[8:1],,5p1[4:1],,{16}1p5[16:3],,,5>6[16:7],,,8>4[16:4],,{8},,,,
{4}1b-5[8:1]/5b-1[8:1],15,
{16}7h[8:1]/5h[8:1],,,6h[8:1]/4h[8:1],,,53,,
{16}2,3,4,5,8,7,6,5,
{16}1,,4,2h[8:1],,4,3h[8:1],,8,,5,7h[8:1],,5,6,,
{16}43,,1,1,,6,6,,8,7,8,7,8,1,2,3,
{16}8b/4,,,,2-6[8:1]/6,,,,
{16}7-4[10:1],,,3qq4[16:5],,,5,,
{16}5^8[8:1],,,,5,,,,
{16}2-5[10:1],,,7qq4[16:5],,,3,,
{16}3^8[8:1],,,,3,,,,16,,,,
{16}4^7[8:1],5,3,4,2,,,,
{8}2-5[8:1],1,2,7v4[8:1],8^3[8:1],7,8^5[8:1],,81,,
{8}2,7-3[8:1],8,2,1,5,3/6h[4:1],,{16}5,4,3,2,4,5,6,7,
{8}1-5[8:1]/8,,6-2[8:1]/1,,16,1,{16}1h[8:1]/3,4,5^8[4:1],6,7,,51,2,3,4,5,,
{8}86,75,64,53,
{16}1,4,1,4,2,5,2,5,3,6,4,5,3,7,1,8,
{8}3V52[5:1],,7-3[8:1]/3,,{16}7,,,8,,,1,,{8}6V48[5:1]/2,,3,,
{16}1,,17,26,{16}35,,,45,,,7-3[4:1]/5,,{8},,4,2,
{8}1,4,2,6,{16}3,5,4,7,
{8}5^8[8:1],4,3,2-6[8:1],1,8,
{8}7^4[8:1],8,1,2^7[8:1],
{16}3,,3,,4,,4,,
{8}35,2,2,16,7,7,1,8,{16}3-8[16:1]/7-4[16:1],,,37,,,1h[16:5],,,,,,{32}28,37,46,5,,,,,
{16}2/8-6[8:1],,,,8-3[8:1]/3,,,,8-5[8:1]/5,5,,,8/2-4[8:1],,,,2-8[8:1]/5,,,,2-6[8:1]/6,,,7,27,,,,8,,1,,
{16}24,,,57,,,83,,
,,2,2,
1,,37,,
{4}6q1[8:4]/4qq5[8:4],,,,
{16}1-5[12:1],,,7-3[12:1],
,,2-6[12:1],,
,4-8[12:1],,,
2,,
{16}1,2,
3,4-8[12:1],,,
7-3[12:1],,,2-5[12:1],
,,6,7,
8,,8,7,
6,
{16}5-1[10:1],,,2-6[10:1],
,,7,,
,,4,6,
,3,,
{4}1z5[4:2]/8s4[4:2],,,,
{8}2V48[4:1]/6b,,8V61[4:1],,1V37[4:1],,7V52[4:1],,8b-4[8:1],,8^3[8:1],,{16}8,,6,6,1b,,,,
{16}7V52[4:1]/3b,,,,2V48[4:1],2,,,8V61[4:1],,,,1-5[8:1],,,2,2b-6[8:1],,,,2-4[8:1],,,7,7-3[8:1],,,,1b,,,,
{16}4V26[4:1]/5b,,,,6V85[4:1],,,,5V37[4:1],,,,7V52[4:1],,,8,8b-4[8:1],,,,8,,,,3,,5,5,8b,,,,
{16}45,,3,3,
{16}1h[16:3],,,3h[16:3],,,5h[16:3],,,8h[16:3],,,4h[16:3],,,6h[16:3],,,8,,27,,36,,4^1[8:1]/5^8[8:1],,,,,,,,
{32}2b,3,4,,,,1b,8,7,,,,4b,5,6,,,,1b,2,3,,,,8b,1,2,,,,6b,5,4,,,,1b,8,7,,,,4b,5,6,,,,
{16}8,8,8,8,{4}8bw4[1:1],,,,,,,{16}1-5[8:1],8,1,,
{4}5,6,6,7<3[4:3],4,4,1,2,3,3,4,4>8[4:3],5,5,
(105.5)
{8}7^5[8:1],7,1,1h[4:1],6^4[8:1],7,8,8h[4:1],4^6[8:1],3,1,1h[4:1],3^5[8:1],4,8,8h[4:1],7,6,
{8}4/6h[8:2],2-8[8:1],5,{16}42,4,{8}4v3[8:1],3-5[12:1],6,8,
{8}6h[8:2]/4^1[8:1],5,4,{16}7,7,{8}7v6[8:1]/1,6-8[12:1],4,3,
{8}1-3[8:1]/2v1[8:1],12,,,6v7[8:1]/7^5[8:1],67,,,
{8}4,,,,5w1[8:1],,,,
{32}1bv7[32:5]/7,2,3,4,8,7V13[32:3],6,5,1,,,,6,,6,,
{32}5-1[16:1],6,7,8,4,3-8[16:1],2,1,5,,,,3,,,,
{32}7/1,6,5-1[32:2],4,8,1,2,3,5,,3,,,,3,,
{32}1,8q4[8:1],7,6,4,3,2,1,{12}7,6,6,
{32}5/3,6,7,8-3[16:1],5,4,3,2,{12}71,1,1,
{24}1,1-5[8:1],1,1,1,1,{12}28,6,6,
{32}8,1,2,3,8,7,6,5,{20}14,8,2,6,5,{28}73,4,6,5,8,1,7,
{8}26,8b/1b,
{32}1-6[16:1]/5,6,7,8,5,4,3,2,
{12}18,7,7,8,18,85,56,14,34,
{40}17,2,3v8[16:1],4,5,1,8,7,6,5,
{32}34,,,,71,,,,{24}2^7[12:1]/6^3[12:1],,,3-7[12:1]/7-3[12:1],,,26,,,,,,
{8}2b-5[16:1]/6b,78,26,{16}75,7,1b-5[16:1]/6b,,34,,18,,
{16}67,7,4b/7b,4,6,6,25,2,4,4,
{32}8p2[32:5],4p6[32:4],1,5,2,6,3,7,
{8}48,,
(211)
{8}6b<4[1:1]/1b,,,,3,,,,4<3[4:7],,,,2,,,,8>4[1:1],,,,2>5[4:3],,,,1,,2,,3,,
{4}26,
{16}18,,6,5,6,,74,,6,5,7,,8,,1,,25,,3,4,3,,25,,3,4,2,,1s5[70#16:7]/8v3[30#80:1],27,36,,
{8}3h[8:11]/6h[8:11],,,,,,,,,,,,1b/8b,,,,
{16}1b/7b,,6,5,7,,84,,4,5,2,,16,,78,,
{16}2b/6b,,7,5,8,,56,,1,4,3,,25,,78,,
{16}6b-4[10:1],,,2-5[10:1],,,8v3[8:1],,,,1,,1,,1,,
{16}2b/8b,,6,5,7,,4/5h[8:1],,{20}2,1,8,7,6,51,48,37,26,15,
{16}8b>4[4:1],,,6,,,6h[4:1],,,,4,,36,,2,,{4}1b-3[8:1]*-6[8:1]/7b,1-7[8:1]*-5[8:1],1w5[8:1],1,
{16}8b/1b,,2,4,1,,78,,6,5,7,,18,,56,,74,,,,18,,18,,7,8,5,2,7,1,5,4,
{16}6b,,2,8,3,,17,,6,6,,4,4,,26,,74,,35,,12,,18,,2,7,3,7,4,6,4,5,
{16}1b,,7,3,8,,12,,3,3,,7,7,,81,,24,,6,4,7,,28,,3,1,3,7,4,6,3,6,
{16}2b-5[8:1],,,5-1[8:1],,,7,,{20}8,7,6,5,4,{4}1b,
{16}8b-4[8:1],,,4-7[8:1],,,2,,{20}8,1,2,3,4,{4}7b,
{16}56,,8,7,1,7,2,,6,5,7,4,8,,84,,
{32}3,,3,,7,6,5,,2,,2,,6,5,4,,1,,1,,8,,8,,7,6,5,4,3,2,1,8,
(105.5)
{4}7b/4bw8[8:5],,,,
{12}4^1[8:1],4,5,6,6,6,5-8[8:1],5,4,35,2,1,
{24}21,,3-5[16:1],4,3-1[16:1],,2,,36,,6,,
{24}46,,7-1[16:1],8,7-5[16:1],,6,,37,,3,,
{48}18,,,
,3,4,
3,4,2,
,8,,
3,,4,
,1,,
{16}1,8,
{48}78,,,
,6,5,
6,5,7,
,2,,
8,,3,
,6,,
{16}6,4,
{12}4V26[8:1]/5,34,6,5,{24}8,
{16}8,7,
{12}7V51[8:1]/1,26,4,3,{24}2,
{32}2,,43,,
{24}7,5,6^8[16:1],
{32}3,4,2,4,
{24}1,,16,{16}2,3,
{16}12,23,3-8[16:1]/4,45,
{24}65,,37,{32}6,,5,,
{48}28,,,,3,4,
{24}3,5,2,
{48}7,8,7,,1,,
{24},6,6,
{48}2,8,2,8,2,8-4[24:1],
,,7,1,7,1,
{48}7,1,,,
8b,,
{24},1,8,
{12}2h[2:1],3,4,5,6,7,
{8}7h[8:3],5,4,2,
{64}1bs5[16:18]/8bz4[16:18],27,36,4h[64:61]/5h[64:61],
,,,,
{1},,,,
&inote_6=
