&title=灼熱Beach Side Bunny
&artist=DJ Mass MAD Izm*
&first=0.15
&des=Cart's last dance
&lv_5=13+
&inote_5=(153){16},,2,,,,2/7h[4:1],,,,3,,,3,,,3/7h[4:1],,2,,,,
{16}2,8h[16:3],,,2,7h[16:5],,3,,,3,,
{16}3,,7,,2,7,,,7/2,,,7/2,,,1,,2,,8b/2,,3,,2,,1-4[8:1]/8-5[8:1],,,,,,,,
{16}4>1[2:1],,8h[32:1],,4b,8h[32:1],,,8h[32:1],,,8h[32:1],,,,,
{16}8<5[2:1],,,,8b,,,,2,,,2,,,3,,
{16}4>1[2:1],,8h[32:1],,4b,8h[32:1],,,8h[32:1],,,8h[32:1],,,,,
{16}8<5[2:1],,,,8b,,,,2,,,2,,,,,
{16}1/5,,,,1/5,,,,2/6,,,2/6,,,2/6,,3/7,,,,3/7,,,,4/8,,,4/8,,,4/8,,
{12}3-5[16:1]/7-1[16:1],3/7,3/7,3b/7b,,,2-4[16:1]/6-8[16:1],2/6,2/6,2b/6b,,,
{12}3/7,2/6,1/5,4/8,1/5,2/6,3-6[16:1]/7-2[16:1],3/7,3/7,3b/7b,,,
{16}4h[32:1]/8-5[8:1],,,,4h[32:1]/8,,,,4h[32:1],,,4h[32:1]/2,,,6/4,,5,,,,5,,,,5/1,,,5/3,,,7/5,,
{16}3h[32:1]/7v4[8:1],,,,3h[32:1]/7,,,,3h[32:1],,,3h[32:1]/5,,,3/6,,
{16}7-3[8:1]/2,,8,,7/2-4[8:1],,1,,2/6,,,5,5,3,4,,
{16}6x/2h[32:1],,7x,6x,2h[32:1]/7x,,6x,7x,2h[32:1]/6x,,7x,2h[32:1]/6x,7x,6x,7x,,
{16}3b,4,3b,4,2b-6[8:1],,,,2/8,,,7,,,6,,
{16}6x/2h[32:1],,7x,,2h[32:1]/6x,,7x,2h[32:1]/6x,7x,6x,2h[32:1]/7x,6x,7x,6x,7x,6x,
{8}1-5[8:1],2,1/8-4[8:1],7,1/8,
{16},3/6,,4/5,,,1>3[8:1]/7h[32:1],,,,1-4[8:1]/7h[32:1],,,,1/7h[32:1],,,1/7h[32:1],,,1,,
{16}6b,5,6b,5,7b-3[8:1],,,,1/7,,,2,,,3,,
{16}5-8[8:1],,,,5-2[8:1]/3,,4,,5,,,7,,,6,,2-6[8:1]/7,,1,,2/7-5[8:1],,8,,7/3,,,4,,,5,,
{16}8<6[8:1]/2h[32:1],,,,8-5[8:1]/2h[32:1],,,,8/2h[32:1],,,8/2h[32:1],,,8,,
{16}3b,4,3b,4,2bv5[8:1],,,,2/8,,,7,,,6,,
{8}1-5[8:1],2,1/8-4[8:1],7,1/8,
{16},3/6,,5,,,
{8}4/7-2[8:1],6,7/4-1[8:1],3,6/4,
{16},,7b,,,,
{16}3,4,3,4,3,4,3,4,2,5,3,,6b,,,,4,,6,,5,6,5,6,5,6,4,,7b,,,,2,1,2,1,2,1,2,1,3,,8,,2b,,,,7,8,7,8,7,8,7,8,6,,1,,7b,,,,
{16}8h[16:12]/3x,,2x,3x,2x,3x,2x,,3x,,2x,,3x,,,,1h[16:12]/7x,,6x,7x,6x,,7x,,6x,7x,6x,7x,6x,,,,8h[2:1]/2x,3x,2x,3x,2x,3x,2x,,3x,,8/2x,,8/3x,,,,2x/6x,3x/7x,2x/6x,3x/7x,2x/6x,3x/7x,2x/6x,,3x/7x,,2x/6x,,3x/7x,,,,
{16}4,5,4,5,4,,6,6,,2,,7,7,,1,,8/2,,8/6,,3/7,,2,6,3,,3,5,2,7,4,,
{16}6/5,,3,5,2,4,3,7,1,1,,1,8,,3,,2-6[8:1]/7,,1,,2/7-5[8:1],,8,,7/3,,,4,,,5,,
{16}3/7,,3/7,,3/7,,3/7,,1,1,,2,3,,3,,7b,4,8b,3,2b-5[8:1],,,,2/8,,,7,,,6,,
{16}3,,4,3,4,,3,,4,3,4,3,4,,3,,6,5,6,5,6,5,6,5,
{24}6x,5x,6x,5x,6x,5x,2b,,,,,,
{16}7x/2h[16:1],,6x/2h[16:1],7x,6x/2h[16:1],7x,6x/2h[16:1],,7x/2h[16:1],,6x/2h[16:1],,2h[16:1],,2h[16:1],,7x/3h[16:1],6x,7x/3h[16:1],6x,7x/3h[16:1],,6x/3h[16:1],7x,6x/3h[16:1],,7x/3h[16:1],,3h[16:1],,3h[16:1],,6x/2h[16:1],7x,6x/2h[16:1],7x,6x/2h[16:1],,7x/2h[16:1],6x,7x/2h[16:1],,6x/2h[16:1],,2h[16:1],,2h[16:1],,7x/3h[16:1],,6x/3h[16:1],7x,6x/3h[16:1],7x,6x/3h[16:1],,7x/3h[16:1],,6x/3h[16:1],,3h[16:1],,,,
{16}2x/7h[16:1],3x,2x/7h[16:1],3x,2x/7h[16:1],,2x/7h[16:1],3x,2x/7h[16:1],,3x/7h[16:1],,7h[16:1],,7h[16:1],,2x/6h[16:1],3x,2x/6h[16:1],3x,2x/6h[16:1],,3x/6h[16:1],2x,3x/6h[16:1],,2x/6h[16:1],,6h[16:1],,6h[16:1],,3x/7h[16:1],,2x/7h[16:1],3x,2x/7h[16:1],3x,2x/7h[16:1],,3x/7h[16:1],,2x/7h[16:1],,7h[16:1],,7h[16:1],,3x/6h[16:1],,2x/6h[16:1],3x,2x/6h[16:1],3x,2x/6h[16:1],,3x/6h[16:1],,2x/6h[16:1],,6h[16:1],,6h[16:1],,
{16}6,,2h[32:1],,,2h[32:1]/7-4[8:1],,,2h[32:1],7,,2h[32:1],,,2,,
{16}4-1[8:1],,3h[32:1],,4-7[8:1],5h[32:1],,,4h[32:1],,,4h[32:1],,,4,,
{16}8-3[8:1],,1h[32:1],,8-5[8:1],7h[32:1],,,8h[32:1],,,8h[32:1],,,8,,
{16}7,1,7,,2,,3,,4,,,4,,,4,,
{16}3,,7h[32:1],,,7h[32:1]/2-5[8:1],,,7h[32:1],2,,7h[32:1],,,7,,
{16}5-8[8:1],,6h[32:1],,5-2[8:1],4h[32:1],,,5h[32:1],,,5h[32:1],,,5,,
{16}1-6[8:1],,8h[32:1],,1-4[8:1],2h[32:1],,,1h[32:1],,,1h[32:1],,,1,,
{16}2,8,2,,7,,6,,5,,,5,4b,,,,
{16}3,,4,,3,,4,3,,4,,3,4,,3,,4,,3,,4,,3,4,,3,,4,3,4,3,,4,,3,4,3,4,3,4,3,4,,3,4,,3,,4,,3,,4,,3,,4,3,4,3,4,3,4,,
{16}2-4[8:1],,2,,8-6[8:1],,8,,3,,3,3,,6,4,6,1-3[8:1],,1,,7-5[8:1],,7,,2,,2,2,,7,1,7,2-5[8:1],,8,,7-4[8:1]/2,,6,,7,,3,3,,2,8,1,7,,,7bv4[8:1]/1bv4[8:1],,,,,,,,,,,,,
{16}7x/2b,,6x,,7x/2b,,6x,7x,2b,6x,,2b/7x,6x,,7x,,6x,,7x/1h[32:1],,6x,1h[32:1],7x,6x,1h[32:1],7x,6x,1h[32:1]/7x,6x,7x,6x,,7x/2b,6x,7x,
{24}6x,7x,6x/2b,
{16}7x,6x,7x,2b,6x,,7x/2b,6x,,7x,6x,7x,6x,7x/1h[32:1],,6x,1h[32:1],
{24}7x,6x,7x,6x/1h[32:1],7x,6x,
{16}7x/1h[32:1],,6x/1h[32:1],,7x,6x,
{24}7x/2b,6x,7x,6x,7x,6x,7x/2b,,,
{16}6x,7x,6x/2b,7x,6x,2b,7x,,
{24}6x/2x,7x/3x,6x/2x,7x/3x,6x/2x,7x/3x,
{16}6x/2x,,7x,6x,7x,6x,7x,6x,7x,6x,7x,6x,,,2b/7x,6x,,,2b/7x,6x,,7x,2b,6x,7x,2b,6x,,7x,,6,,7,,6,,7,,6,,,,7b,
