&title=メロドラマ (志国一路 & EstyDK cover)
&artist=なとり & imase
&first=0
&des=伍舟之雨 & Dororo
&lv_5=13
&inote_5=(99)
{1},
||PART
ONE
{16}5,,,,E7/E4,,,,5,,,,E7/E4,,,,
{16}6h[4:1],,,,5h[4:1],,,,4h[4:1],,,,3,,,,
{16}4,,,,E3/E6,,,,4,,,,E3/E6,,,,
{16}3h[8:1]/5h[8:1],,,,6h[8:1]/2h[8:1],,,,7-2[12:1]/1-7[12:1],,71,,,,,,
{16}6h[4:1],,,,5pp6[6:1],,,,4,,4,,53,,7h[8:1],,
{16}8h[8:1],,7h[8:1],,5pp6[6:1],,,,1,,1,,28,,,,
{16}6h[4:1],,,,5pp6[6:1],,,,4,,4,,53,,7h[8:1],,
{16}1h[8:1],,7h[8:1],,5pp6[6:1],,,,2,,2,,31,,,,
{16}7h[4:1],,,,5pp6[6:1],,,,3,,3,,24,,7h[8:1],,
{16}8h[8:1],,7h[8:1],,5pp6[6:1],,,,1,,1,,28,,,,
{16}4h[4:1],,,,5pp6[6:1],,,,3,,3,,24,,7h[8:1],,
{16}1h[8:1],,7h[8:1],,5pp6[6:1],,,,8qq5[4:1],,1x,,1x,,,,
{16}4w8[12:1],,,,4bqq3[6:1],,,,5,,5,,46,,2h[8:1],,
{16}1h[8:1],,2h[8:1],,4qq3[6:1],,,,8,,8,,71,,,,
{16}3h[4:1],,,,4qq3[6:1],,,,5,,5,,46,,1h[8:1],,
{16}7h[8:1],,1h[8:1],,4qq3[6:1],,,,7,,7,,68,,,,
{16}2h[4:1],,,,4qq3[6:1],,,,6,,6,,75,,1h[8:1],,
{16}2h[8:1],,3h[8:1],,4qq3[6:1],,,,8,,8,,71,,,,
{16}6h[4:1],,,,4qq3[6:1],,,,5,,5,,64,,7h[8:1],,
{16}6h[8:1],,5h[8:1],,4qq3[6:1],,,,8,,E7,,E2,,E5,,
{16}3x-5[12:1]/6x-2[12:1],,,,3>6[6:1]/6,,,,4,,4,,35,,,,
{16}E7/B6/1h[8:1],,,,B3/B4/8h[8:1],,,,E7/B6/1h[8:1],,,,B3/B4/8h[8:1],,,,
{16}6x-4[12:1]/3x-7[12:1],,,,6<3[6:1]/3,,,,5,,5,,6b-2[12:1]/4b-8[12:1],,,,
{16}4qq5b[4:1]/6pp5b[4:1],,,,,,,,,,,,{24}4,,4,5,,,
{16}3-1[12:1]/8-3[12:1],,,,38,,,,8-4[12:1]/4-7[12:1],,,,4qq5[4:1]/8,,,,
{16}1,,5,,8-5[12:1],,6-1[12:1],,,,,,4^6[12:1],,3/1h[8:3],,
{16}4,,,,5^3[12:1],,6/8h[8:3],,5,,,,4pp5[6:1],,13,,
{16}5-2-4[6:1],,,,1,,7,,5w1[12:1]/6,,43,,,,,,
{16}6-8[12:1]/1-6[12:1],,,,61,,,,1-5[12:1]/5-2[12:1],,,,5pp4[4:1]/1,,,,
{16}8,,4,,1-5[12:1],,3^8[12:1],,,,,,5-7[12:1],,4/8h[8:3],,
{16}5,,,,3-1[12:1],,4h[8:3]/8,,3pp1[4:1],,,,,,,,
{16}2xh[8:1],,3h[8:1],,4h[8:1],,5xh[8:1],,6h[8:1],,7,,1b/8b,,,,
||PART
TWO
{24}4,,E6,E3,,,8,,,35,,E2,E7,,,B4,,,8,,,,,,
{24}1,,E3,E8,,,5,,,73,,,5,,E4,E7,,,C,,,,,,
{24}8,,B3,B5,,,8,,,62,,,4,,B6,B2,,,B4,,,,,,
{24}5,,E4,E7,,,1,,,7xqq2[8:3]/3xqq6[8:3],,6,2,,,,,,,,,,,,
{24},,,,,,,,,,,,,,,6pp4[8:3],,,,,,,,,
{24}4qq5[8:3],,,,,,,,,,,,,,,,,,6<2<6[8:4],,,,,,
{24}2,,,,,,,,,,,4,,,,2,,,1s5[4:1],,,,,,
{24}5,,,,,,1,,,,,7,,,,5,,,46,,,,,,
{24}2>5[8:1],,,,,,6,,,,,,2>5[8:1],,,1,,,6,,,,,8,
{24}7<4[8:1],,,,,,2,,,,,,7<4[8:1],,,8,,,1pp6[8:3],,,,,,
{24}8h[8:2],,,,,,,,,,,,7,,,7,,,6v5[8:1]/4v3[8:1],,,,,,
{24},,,,,,2v1[8:1]/8h[4:1],,,,,,,,,8,,,26,,3,5,,26,
{24},,,,,,1-7[12:1]/7-2[12:1],,2,6,,,
{24},,,,,,6h[8:1]/5h[8:1],,,,,,3h[8:1]/4h[8:1],,,,,,2qq7[12:4]/6,,5,3,,,
{24}1x,,,7,,,6,,,5,,,8/4<7[12:1],,,2,,,8-4[12:1],,,4,,,
{24}8/1h[8:2],,,,,,2-6[12:1],,,8,,,1h[8:2]/2,,,,,,7v6-4[6:1],,,6/8,,,
{24}4-7[12:1],,,2,,,8,,,2,,,4w8b[12:1]/3,,,65,,,,,,,,,
{24}3-5[12:1]/6-3[12:1],,,,,,36,,,,,,2-7[12:1]/6-2[12:1],,,,,,2qq5[12:4]/6,,,,,,
{24}4,,,6,,,7,,,8,,,1/5>2[8:1],,,7,,,1-5[12:1],,,5,,,
{24}1/8h[8:2],,,,,,7-3[12:1],,,1,,,7/8^1-3^4[8:1]*-5^6[8:1],,,,,,8,,,,,,
{48}7q3[12:1],6x,5xh[24:8],,,,{24}3,,,7,,,,,,{48}2p6[12:1],3x,4xh[24:8],,,,{24}6,,,2,,,,,,
{24}4>1[8:1],,,1pp2[6:1],,,8,,,6,,,5<8[8:1],,,8qq7[6:1],,,1,,,3,,,
{24}4>1[8:1],,,1pp2[6:1],,,8,,,6,,,5pp4[4:1],,,,,,3,,,,,,
{24}2-5[8:1],,,5qq4[6:1],,,6,,,8,,,1-6[8:1],,,6pp7[6:1],,,5,,,4,,,
{24}3b-6b[8:1],,,6qq5b[6:1],,,7,,,8,,,1pp4[4:1],,,,,,8,,,,,,
{24}5<8[8:1],,,8qq7[6:1],,,1,,,3,,,4>1[8:1],,,1pp2[6:1],,,8,,,6,,,
{24}5<8[8:1],,,8qq7[6:1],,,1,,,3,,,4qq5[4:1],,,,,,6,,,,,,
{24}7-4[8:1],,,4pp5[6:1],,,3,,,1,,,8-3[8:1],,,3qq2[6:1],,,4,,,5,,,
{24}6b-3b[8:1],,,3pp4b[6:1],,,2,,,1,,,8w4[12:1],,,,,,8,,,,,,
{24}E2/C,,,,,,E3,,,,,,E4,,,,,,E5/C,,,,,,
{24}E6/C,,,,,,E7,,,,,,E8/C,,,,,,E1/C,,,,,,
{24}E2/C,,,,,,E3,,,,,,E4/C,,,,,,E5,,,,,,
{24}E6/C,,,,,,E7,,,,,,E8/Ch[8:2],,,,,,E1,,,,,,
{24},,,,,,,,,,,,
E
