&title=Retrospective
&artist=naotyu- feat.maya
&first=0
&des=Dororo
&lv_5=13
&inote_5=(130)
{1},
{16},,,,,,,,,,,,,,,,
{16}2<6[4:1]/6,,,,,,,,4^1[16:3],,,1^6[16:3],,,6p4[8:3],,
{16},,,,,,,,,,2,,3,,4,,
{16}6>2[4:1]/5,,,,,,,,1^6[16:3],,,6pp5[16:5],,,5,,
{16},,,,4,,3,,2,,1,,8,,7,,
{16}2<6[4:1]/6,,,,,,,,4^1[16:3],,,1^6[16:3],,,6p4[8:3],,
{16},,,,,,,,,,2,,3,,4,,
{16}5b^2[8:1]/6bp1[8:1],,,,,,,,7b^4[8:1]/8bp3[8:1],,,,,,,,
{16}1b<5[4:1],,,,5b>1[4:1],,,,1b,,,,5,,,,
{16}2h[4:1]/6,,,,3^8[8:1],,2,4h[16:3],,,,,1p5[8:1],5,,,
{16}2h[4:1],,,,3p7[8:1],,2,4h[16:3],,,,,1p5[8:1],5,,,
{16}2h[4:1],,,,3^8[8:1],,2,4h[16:3],,,,,1p5[8:1],5,,,
{16}2pp6[2:1],,3,,7,,7h[8:3],,,,,,,,,,
{16}6h[4:1]/2,,,,7^4[8:1],,6,1h[16:3],,,,,2pp3[6:1],4,,,
{16}6h[4:1],,,,7p3[8:1],,6,1h[16:3],,,,,2pp3[6:1],4,,,
{16}6h[4:1],,,,7^4[8:1],,6,1h[16:3],,,,,2pp3[6:1],4,,,
{16}6>1[8:3],,7p8[4:1],,,,,,,,,,2b/7b,,,,
{16}3h[4:1]/4h[2:1],,,,,,,,5^3[8:1],,,,6,,6>8[8:3],,
{16},,,,,,,,,,,,17,,,,
{16}2^7[8:1]/4h[4:1],,,,,,,,5p4[4:3],,,3,,,1p8[8:3],,
{16},,,,,,,,,,,,15,,,,
{16}7h[4:1]/8h[2:1],,,,,,,,1^7[8:1],,,,2,,2<4[8:3],,
{16},,,,,,,,,,,,53,,,,
{16}6^3[8:1]/8h[4:1],,,,,,,,1pp8[8:3],,,7,,,5b,,
{16},,,,,,,,,,,1,8,,27,,
{16}3>7[4:1]/6,,,,7<3[4:1],,,,3>7[4:1],,,,7<3[4:1],,6p1[4:1],,
{16},,,,,,,,2/8pp2[8:1],,,,7^4[8:1],,,,
{16}2<6[4:1],,,,6>2[4:1],,,,2<6[4:1],,,,6>2[4:1],,5pp5[4:1],,
{16},,,,,,,,1pp3[8:1]/7,,,,8^5[8:1],,8,,
{16}2h[16:3],,,4h[16:3],,,8<2[4:1],,,,,,1,,8,,
{16}7h[16:3],,,5h[16:3],,,1<3[4:1],,,,,,2,,1,,
{16}8h[4:1],,,,6^3[8:1],,5,,7b,,,,2^7[8:1],,1,,
{16}3bp6[8:1],,,,8b,,,,5^2[8:1],,2^7[8:1],,7pp4[8:3],,6,6h[16:7],
{16},,,,,,,,4^1[8:1],,1^6[8:1],,6pp3[8:3],,5,5h[16:7],
{16},,,,,,,,3^8[8:1],,8^5[8:1],,5pp2[8:3],,4,4h[16:7],
{16},,,,,,,,2^7[8:1],,7^4[8:1],,4pp1[16:6],,,,
{16}8pp5[16:6],,,,,,,,,,,,1b,,8,8,
{16}2^7[8:1],,,,3,,3p6[8:1],,,,5,,5,,7,7,
{16}3>6[6:1],,,,4,,4pp5[6:1],,,,8,,8,,2,2,
{16}4^1[8:1],,,,7^4[8:1],,,,3h[16:3],,,2h[16:3],,,1,,
{16}8bpp2[8:1]/3bpp5[8:1],,,,,,,,1^6[8:1],,6^3[8:1],,3pp8[8:3],,2,2h[16:7],
{16},,,,,,,,8^5[8:1],,5^2[8:1],,2pp7[8:3],,1,1h[16:7],
{16},,,,,,,,7^4[8:1],,4^1[8:1],,1pp6[8:3],,8,8h[16:7],
{16},,,,,,,,6^3[8:1],,3^8[8:1],,8pp5[16:6],,,,
{16}4pp1[16:6],,,,,,,,,,,,5b,,4,4,
{16}6^3[8:1],,,,7,,7p2[8:1],,,,1,,1,,3,3,
{16}7<2[6:1],,,,8,,8pp1[6:1],,,,4,,4,,6,6,
{16}8^5[8:1],,,,3^8[8:1],,,,7h[16:3],,,6h[16:3],,,5,,
{16}4bp8[8:1]/6bp8[8:1],,,,4b>5[4:1]/6b,,,,7b,,,,1,,,,
{16}2h[4:1]/6,,,,3^8[8:1],,2,4,,6,6,,1p4[8:1],5,,,
{16}2h[4:1]/1,,,,3p7[8:1],,2,4,,6,6,,1p4[8:1],5,,,
{16}2h[4:1]/1,,,,3^8[8:1],,2,4,,6,6,,1p4[8:1],5,,,
{16}12,,3,,4>5[4:1]/6,,,,7b,,,,1,,,,
{16}6h[4:1]/2,,,,7^4[8:1],,6,1,,8,8,,2pp4[8:1],4,,,
{16}6h[4:1]/2,,,,7p3[8:1],,6,1,,8,8,,2pp4[8:1],4,,,
{16}6h[4:1]/2,,,,7^4[8:1],,6,1,,8,8,,2pp4[8:1],4,,,
{16}6pp3[8:3]/2,,5p4[4:1],,,,,,,,,,2b/5b,,,,
{16}6,4,6,3>5[8:6],,2<6[8:4],,1<6[8:3],,8<5[8:3],,7,7,,4b,,
{16},,,,,,,,,,,,,,,,
E
