&title=[DX]AMAZING MIGHTYYYY!!!!
&artist=WAiKURO
&first=0
&des_1=AMH
&des_2=AMH
&des_3=AMH
&des_4=AMH
&des_5=AMH
&lv_5=14.7
&des_6=AMH
&des_7=AMH
&des=AMH
&inote_5=(185){2},5<4[1:1]/1bs5b[2:1],,,
{4}6/5,6/5,5/7,7/5,4/3,3/4,4/2,4/2,5/7,6/5,5/7,6/5,4/2,4/3,
{8}4/2-6b[8:1],4/2,,,4bx/7bx,
6,5/2,3,5/4,{16}6,5,{8}6,7,
2b/5b,1,4/7,8,5/3,{16}2,6,{8}2,7/1,
{16}2b,8,3,7,4,6,4,6,3b,5,2,6,1,7,1,8,
1bx-5[0.973##0.1622],1,1,1,1bx-5[0.6454##0.1622]*-5[0.6454##0.1622],1,1,1,{8}1bxw5b[8:1],1bx,{4}Cf/B1/B5,
3/7,{8}5/6,7,{16}8/2,,,3,{8}3/4,5,
{4}6/1,{8}5/7,4,{16}4/3,,,2,{8}2/5,1,
{4}7/8,{8}5/6,7,{16}8/2,,,4,{8}5/3,8,
{4}7/1,{8}5/6,4/7,{16}8/3h[8:3],,,1,{8},4,
{4}3b/5b,{8}4/3,2,{16}1/7,,,6,{8}6/5,4,
{4}3/5,{8}7/1,2,{16}3/8,,,4,{8}4/5,6,
5/3,2,4/6,7,3/4,2,8/7,6,
4/5h[4:1],3,{24}1,8,7,6,5,4,{4}3h[16:3]/1w5b[8:1],Cf,
{8}7bx/3bx,5,6/2,4b,{16}7,3,,3,{8}6,4,
5b/3b,4,4/6,5b,{16}2,6,,6,{8}3,5,
4b/7b,6,5/2,3b,{16}6,4,,4,{8}7,3,
3/4b,2,6b/5,7,{16}2b/8,,,3b/4,{8},5b/6,
7b/3h[4:1],1,7h[8:1],1b,{16}6,4,,4,{8}7,1,
3/5bh[4:1],4,3h[4:1],4b,{16}5,3,,3,{8}7,1,
7b/8b,8/7,6b/1b,6/1,2b/5b,2/5,3b/4b,3/4,
5h[8:1],{16}1,2,{8}3h[8:1],6bx,{24}7,8,1,2,3,4,{4}5/1bh[4:1],
{8}7bh[8:1],4,{4}3b/6h[4:1],{8}2,{16}5b,4,{8}5,3b/6b,
2/7,{16}4,5,{8}4,3/6,7b/2b,8,2b/7b,1,
2/7h[4:1],3b,{4}3b,{8}6b/3,{16}5,4,{4}5,
{8}6/3b,4,3/6b,5,6/3b,{16}1,8,{8}1,2/7,
{4}3/6b-1b[8:1],4/6,{16}5b,6,7,8,{8}1/5,3b/7b,
4,6/2,5b,6/4,3b/7b,1,{4}8b/2b,
{8}2b/6h[4:1],4,{4}2h[4:1],{16}4,3,2,1,{8}8/4b,3,
2b/6,3,4/7b,6,{4}4b-1b[8:1]/5b-8b[8:1],4b/5b/Cf,
{8}3x/5x,3,4/6,6,{16}3,5,{8}3,4/6,4/6,
7/1,{16}1,7h[8:1],,2,{8}8h[8:1],4,5/3,{4}6b/2b,
{8}7/1,7,8/2,2,{16}7,1,{8}7,8/2,2,
{16}8,2,7,3,{8}6,{16}4,5,3bx,,,7bx/1bx,{8},6bx/2bx,
7/1,7/1,2/8,2/8,{16}8,2,7,1,{8}6h[4:1],4,
3h[8:1],{16}1,2h[8:1],,8,{8}1h[8:1],6,5/7,{4}8/4,
{8}3/5,3/5,4/6,4/6,{16}6,5,6,5,7,4,8,3,
1,2,1,2,{32}1x,D1,A8,D8,A7,D7,A6,D6,{24}2x/A5,1,8,7,6,5,{4}4w8[8:1],
{1}Cf/4b>5b[2:7]*<3[2:7],,,,
{4}4h[4:7],
{16}5,,,5,{8},6,{4}7,
{16}1,,,1,{8},7,{16},7,,,{4}A8/E8/B8/E1,
8h[4:3],{16}1,,,1,{8},2,{4}2,
{16}2/6,,,3/7,{8},4/8,{16}3x/7x,,,2/6,{8},1/5,
1h[2:1],2,3,4,{16}5,6,7,8,1,2,3,4,
{8}5h[2:1],6,7,8,{16}1,8,7,6,5,4,3,2,
{8}1h[8:3],8,7,6,5h[8:3],4,3,2,
1h[8:3],7,6,5,{16}5/E2,6/E3,7/E4,8/E5,E6,E7,E8,E1,
{8}6bx/E2,7,8,1,{24}1b,2,3,4,5,6,7,8,1,{8}2,8x/4x,
3,2,1,{16}5b/1h[8:3],4,3,2,,8,7,6,
{8}1/5h[8:1],1,6/2h[8:1],6,3/7h[8:1],3,8/4h[8:1],8,
{16}4,8,3,7,2,6,1,5h[16:5],{32}E3,E4,E5,E6,E7,E8,E1,E2,{4}2bx-6b[8:1],
{16}2bx/7bx-4b[16:1],,,7bx/3bx-8b[8:1],{8},3bx/6bx,{4}6bx-2b[8:1],{16}6bx/1bx-5b[16:1],,,1bx/7bx-3b[16:1],
{8},7bx/2bx-6b[8:1],{16},2bx/5bx-1b[8:1],,,{4}5bx,3bx/7bx,
{16}4bx-8b[16:1],,,4bx/7bx-3b[8:1],{8},7bx/2bx,{4}2bx-6b[8:1],{16}2bx/8bx-4b[16:1],,,8bx/3bx-7b[16:1],
{8},3bx/6bx-2b[16:1],{16},6bx/1bx-5b[8:1],,,{4}1bx/8bx-4b[8:1],{8}8bx,3x-7[8:1],
3,,,{16}6,5,{8}4/7bxh,,,{16}3,4,
{8}5/2bxh,,,{16}7,8,{8}6bx/1,2,3/8,4/7,
{16}6,5,6,5,6,5,6,5,7,4,7,4,7,4,7,4,
6,5,6,5,7,4,7,4,6,5,7,4,8,3,1,2,
{4}1bh[4:1],{16}5<8[8:1],4,3,2,{4}1h[2:1],{24}2,3,4,5,6,7,
{8}8h[8:1],{24}2,3,4,{8}5h[8:1],{24}7,6,5,{8}4h[8:1],{24}1,2,3,{8}4h[8:1],{24}8,7,6,
{8}5b/4b,3,5b/4b,6,4b/5b,{32}5/4,3/6,2/7,1/8,,,,,8/1,2/7,3/6,4/5,{16},,,,8-4[8:1]/1-5[8:1],2/7,{8}6/3,{4}8/1,{32}8w4[8:1]/1w5[8:1],7/2,6/3,5/4,,,,,{4}8/1,
{16}7>1[8:1],4,6,5,{8}7,{16}2,4,{8}3-8b[8:1],4/2,
3b/4b,5,{16}6,5,7,4,{8}6,{16}2,4,{8}3h[8:1],7b,
{4}6/4,{16}2-8b[8:1],5,3,4,{8}2,{16}6,5,{8}7,8,
4/7,5/6,5/2,3/4,5/4,{16}2/7,3/6,{8}4-8b[8:1]/5-1b[8:1],2/7,
{4}4b/5b,{16}7-4[8:1],8,6,1,{8}7,{16}2-5b[8:1],1,{8}3,2b/1b,
8,7,6/5,4,5/6,{16}8,7,{8}6/4-2[16:1],2,
{16}4/8-4[16:1],,,8/1-5[16:1],{8},1/6-2[16:1],{16},6/3-7[16:1],{8},3/6-8b[8:1],6,
{16}A6/2-4[8:1],,,A2/1-5[8:1]*-5[8:1],{8},A1,,4h,{32}1-5b[8:1]/7-3b[8:1],2/6,{16}5bxh/3bxh,,,{4}7b/1b/Cf,
{16}7,4,6,5,{8}7h[8:1],{16}2,1,{8}3h[8:1],4,
{4}3/4,{16}2,5,3,4,{8}2h[8:1],{16}6,5,{8}7,1/8,
2,3/8,7,6/2,3,4/8,7,6/2,
{16}1/5,6/2,3/7,8/4,5,6,7,8,5/1-5b[8:1],6/2,3/7,8/4,{4}1b/5b,
{8}2/4,3,4/5,6,1/7,{16}2,8h[16:3],{4}3h[8:1],
{8},5/2,6/3,7/4,{16}8/4,3/7,2/6,1/5,8,7,6,5,
4/8b-4b[16:1],,,3-8b[16:1],{8},6-2b[16:1],{4}1-5b[16:1],{8}8,8,
{16}7b-3b[16:1],,,2-5b[16:1],{8},6-1b[16:1],{16},4-8b[16:1],,,{24}B4,Cf,B8,A8,,,{2}5bx-1[2:3],,,
{4}B8/E8,B6/E6,
{1}3-7b[2:3],
{8}E1,E2,E3,E4,,,,,8-4[8:1],
8,{16}2-5[8:1],,,6-1[8:1],{8},4-8[8:1],,7-2[8:1],
{4}1xh[8:1],{16}1x-5b[8:1],,,7-4b[8:1],{8},3-8b[8:1],,5,
1x-5b[8:1],1,7-5[8:1],7,1-3b[8:1],1,8-4[8:1],8,
1,1,2/8,2/8,3/7,3/7,{16}6,4,7,4,
{24}8bh[4:1],,,,,,,7/1,6/2,5/3,,,{16}7,4,8,4,{24}1,8,7,6,,,1b,
2,3,4h[8:1],,,{16}2,3,4,5,6/1-5[8:1],2/7,8/3,4/1,{8},,6x/2x,
4,3/7,5,5/3>8[8:1],{16}4,5,{8}3b,7h[4:1],
{24}6,5,4,3,2,1,{4}6-2b[8:1]/8-4[8:1],{2}8<2p1[4:1],
{8}4x-8[8:1],4,5-1[8:1],5,3-8[8:1],3,6-1[8:1],6,,,
{24}2,3,4,5h[8:1],,,{32}7,6,5,4,3,2,1,8,{4}7,
{8}7/4,{16}6,5,{8},2/5,{16}3,4,{8},2/5,2/5,
6/1,{16}8,7,,7/8,6/1,2/5,{4}3b/4bh[4:1],{24}1-5[8:1],8,7,6,5,4,
{1}3/Cf/1b-5V31<5[4:7]*-5V71>5[4:7],
E
