&title=MIYAKO
&artist=水中スピカ
&first=0.02
&des=MYOU
&clock_count=4
&lv_5=13+
&inote_5=(200)
{1},
{8}2h[8:1],5h[8:1],4h[8:1],7h[8:1],5,4,35,,
{8}2h[8:1],5h[8:1],4h[8:1],7h[8:1],5,4,35,,
{8}1h[8:1],4h[8:1],3h[8:1],7h[8:1],5,3,24,,
{8}1h[8:1],4h[8:1],3h[8:1],7h[8:1],5,3,14,,
{8}7h[8:1],4h[8:1],5h[8:1],2h[8:1],4,5-3[8:1],65,,
{8}7h[8:1],4h[8:1],5h[8:1],2h[8:1],4,5-3[8:1],65,,
{8}8h[8:1],5h[8:1],6h[8:1],2h[8:1],4,5-2[8:1],75,,
{8}8h[8:1],5h[8:1],6h[8:1],2h[8:1],4,5-1[8:1],75,,
{16}7,,6,5,6,,45,,3,4,3,,24,,,,
{16}7,,6,5,6,,45,,3,4,3,,24,,,,
{16}1,,3,4,3,,54,,6,5,6,,74,,,,
{16}1,,3,4,3,,54,,6,5,6,,84,,,,
{16}7,,6,5,6,,45,,3,4,3,,1h[4:1]/5,,,,
{16}7,,6,5,6,,45,,3,4,3-5[8:1],,24,,,,
{16}1,,3,4,3,,54,,6,5,6,,4/8h[4:1],,,,
{16}1,,3,4,3,,54,,6,5,6-3[8:1],,74,,,,
{1}1b,
{1},
{1}3pp8[4:5]/7h[4:7],
{1},
{1}7q3[2:1],
{1}4>1[2:1]/5<8[2:1],
{1}7pp2[4:5]/2,
{8}3,,,4,,,5,,
{8}8>5[4:2],,,,,,,,
{1}2h[4:3]/6h[4:3],
{1}2qq7[4:5]/6-4[8:3],
{8}4,,,5,,,6,5,
{8}8b>3[4:1],,,,4,,3,4b,
{8}1<6[4:1],,,,5-1[4:1],,,,
{1}3<6[4:2],
{32}8h[96:1],1h[96:1],,,,,,,{8}2,2,4,{16}4,3,{8}5,5,
{8}46,4/6v3[8:1],,3-5[16:1],,1,1-7[8:1],,
{4}5-3[8:1],8-4[8:1],4,26,
{8}37,7/3v8[8:1],,8-2[16:1],,6,6-4[8:1],,
{4}2-8[8:1],5-1[8:1],1,28,
{8}65,5/6-8[8:1],,8-4[8:1],,3,3-1[8:1],,
{4}7-5[8:1],3-1[8:1],7,35,
{8}46,6/4-1[8:1],,1-5[8:1],,6,6-8[8:1],,
{4}2-4[8:1],5-2[8:1]*-8[8:1],5,1,
{8}17,1/7V58[4:1],,8-4[8:1],,3,3-8[8:1],,
{4}5-2[8:1],1-5[8:1],8-4[8:1],48,
{8}53,5/3V14[4:1],,4-8[8:1],,7,7-4[8:1],,
{4}1-6[8:1],5-1[8:1],4-1[8:1]*-7[8:1],4,
{8}6h[8:1],4h[8:1],5h[8:1],3h[8:1],4,5,64,,
{8}7h[8:1],5h[8:1],6h[8:1],2h[8:1],4,6,57,,
{8}7h[8:1],4h[8:1],5h[8:1],2h[8:1],4,5-3[8:1],65,,
{8}8h[8:1],5h[8:1],6h[8:1],2h[8:1],4,5-2[8:1],57,,
{16}8,,6,5,6,,45,,3,4,3,,2h[8:1]/4,,5h[8:1],,
{8}4h[8:1],7h[8:1],1h[8:1],8h[8:1],2h[8:1],4h[8:1],5h[8:1],7h[8:1],
{16}1,,3,5,3,,{8}6h[8:1]/4,2h[8:1],4-8[8:1],8h[8:1],4,
{2},2>5[8:1]/7<4[8:1],
{8}1b/8b,,2-4[8:1],4-6[8:1],5,7,7,5,
{4}8-2[8:1],8/4-8[8:1],4/7-5[8:1]*-4[8:1],7,
{8}1b/2b,,8-6[8:1],6-4[8:1],5,3,3,5,
{4}1h[4:1],4-1[8:1],4/2-6[8:1]*-5[8:1],2,
{8}7b/8b,,3-1[8:1],1-7[8:1],8,6,6,1,
{4}7-4[8:1],7/3qq4[8:3],3/5<7[8:1],5,
{8}5/6h[4:1],5,4,3,2h[4:1]/5,6,7,8,
{8}1>4[8:1]/7<4[8:1],,17,,26,{16}3,5,{8}4,56,
{8}1b/8b,,2v4[8:1],4-6[8:1],5,7,7,4,
{4}1-5[8:1],1/3-7[8:1],3/7v2[8:1]*v4[8:1],,
{8}1b/5b,,7v5[8:1],5-3[8:1],4,2,2,5,
{8}8h[8:1],6h[8:1],5h[8:1],7h[8:1],8h[8:1],6h[8:1],5>2[8:1],,
{20}8b,7,6,5,4,3q7[8:1],2,1,8,7,{8}6>3[8:1],,8-4[8:1],,
{8}4-6[8:1]/8,,7h[4:1],,5-1[8:1],56,8,,
{8}2b-5[8:1]/7b-4[8:1],,2b/7b,,6,8,1,7/3>6[4:1],
{8},4,4,,15,{16}2,4,{8}3,56,
{8}8q4[8:1]/7,,5,,1p5[8:1]/2,,4,,
{8}8q4[8:1]/7,,5,,8,2,4h[4:1],,
{8}5p1[8:1],,8,,4q8[8:1]/3,,1>4[8:1]*<6[8:1],,
{8},,3/7h[4:1],,8,6,4h[4:1],,
{8}3-6[8:1],,8,,4/7-3[8:1],,1,,
{8}6/2V46[8:1],,1,,7,4,5h[4:1],,
{8}8q5[4:1],,5<1[4:1],,1q8[4:1]*>7[4:1],,,,
{8},,12,3,48,{16}7,5,{8}6,45,
{8}3<6[8:1]/4,,2,,5-8[8:1]/7,,4,,
{8}1/7>2[8:1],,6,,8,3,5h[4:1],,
{8}6>3[8:1],,7,,2/4-8[8:1],,5<3[4:1],,
{8},4,4v6[8:1],,5-3[8:1],,,,
{20}1b,2,3,4,5,6p2[8:1],7,8,1,2,{8}3q7[8:1],,1-5[8:1],,
{8}5-8[8:1]/1,,4-1[8:1],,1-5[8:1],,6,,
{8}7b/8b-3[8:1],,8b/4b-7[8:1],,4b/1b-6[8:1],,1b/5b-2[8:1],,
{8}5b/8bw4[8:1],,8b,,26,7,18,2,
{8}3-6[8:1]/7,,4V68[16:3],,1b,,4,4,
{8}1,2,5<2[16:3],4,8b,,4,4,
{8}2/6-2[8:1],,5p8[8:1],,8b,,5,5,
{8}8,7,3>6[16:3],4,1b,,5,5,
{8}3v5[8:1]/7,,8V64[16:3],,1b,,3,3,
{8}1,2,6,5,1b/8b,,3,4,
{8}5h[4:1]/6,,1,,4h[4:1]/3,,8,,
{8}6,5,1,2,4,3,8p4[8:1],,
{8}3v8[8:1]/8,,6p1[8:1],,1b,,4,4,
{8}1,2,5<2[16:3],4,8b,,5-1[8:1],5,
{8}6-2[8:1],,3V57[16:3],,8b,,5,5,
{8}8,7,3>6[16:3],4,1b,,4-1[8:1],4,
{8}3pp5[8:1],,7p2[16:3],,1b,,4,4,
{8}1,2,6,5,1b/8b,,3,4,
{8}5>2[8:1]/6,,1,,4<7[8:1]/3,,8,,
{8}5,6,1,8,{24}3,4,5,{8}6,8,8,
{8}6h[4:1]/4h[4:1],,,6h[4:1]/4h[4:1],,,3h[4:1]/5h[4:1],,
{8},3h[4:1]/5h[4:1],,,3/5-7[8:1],,4,,
{8}6h[4:1]/4h[4:1],,,6h[4:1]/4h[4:1],,,3h[4:1]/5h[4:1],,
{8},3h[4:1]/5h[4:1],,,3/5-8[8:1],,4,,
{8}7h[4:1],5,4,7h[4:1],5,4,6h[4:1],4,
{8}3,5h[4:1],4,3,2/4-8[8:1],,3,,
{8}6h[8:1],4h[8:1],5h[8:1],3h[8:1],4,5,64,,
{8}7h[8:1],5h[8:1],6h[8:1],2h[8:1],4,6,57,,
{8}7h[8:1],4h[8:1],5h[8:1],2h[8:1],4,5-2[8:1],56,,
{8}8h[8:1],5h[8:1],6h[8:1],2h[8:1],4,5-1[8:1],57,,
{16}8,,6,5,6,,45,,3,4,3-5[8:1],,42,,,,
{16}1,,3,4,3,,54,,6,5,6-4[8:1],,57,,,,
{16}8,,6,5,6,,45,,3,4,3<6[8:1],,24,,,,
{2}8b-4[16:41],6,
{2}2,7,
{2}3,8,
{16}63,27,
