&title=コルドバの女
&artist=劇団レコード
&first=0
&des=Dororo
&lv_5=13+
&inote_5=(142)
{1},
{16},,,{48}D3,D4,D5,{16}5xh[4:1],,,,7h[4:1],,,,1h[4:1],,,,
{16}4b,2,5,3,1,,38,,,,6x/5,,5x/4,,4x/3,,
{16}2b/6b,,3^8[8:1],5^8[16:1],4,,,,,,3x/4,,4x/5,,5x/6,,
{16}5xb,7,4,6,8,,8,7,4xb,5,3,4,2,,2,1,
{16}3,5,4bq8[8:1]*-1[8:1],,62,,4b^7[8:1]*^2[8:1],,,,,,,,1xb/8xb,,
{16}2h[4:1]/7,,,4,4h[4:1],,,5,5h[4:1],,,8,8^3[8:1],,5,,
{16}7h[4:1],,,5,5h[4:1],,,4,4h[4:1],,,1,1^6[8:1],,4,,
{16}2h[4:1],,,4x,4x-1[8:1],,8,,6,,,5x,5x-8[8:1],,1,,
{16}3>5[4:1],,,,3h[4:1],,,,{24}E3,E2,E1,E8,E7,E6,{16}E5/1x,,,,
{16}2,4,3,5,4,6,5,8,8h[4:1],,,,5,,8,,
{16}7,5,6,4,5,3,4,1,1,8,2,7,3,6,4,,
{16}3x/7x,2,1,8,7,6,5,4,3x/8x,1,2,3,4,5,6,7,
{16}2x/8x,3,4,5,6-2[8:1],7,8,1,2xw6[8:1],,,,,,,,
{16}34,,2xh[4:1]/5x,,,,1,1,1xb-5[8:1],,,,17,,,,
{16}65,,4x/7xh[4:1],,,,8,,2-5[8:1]/6-1[8:1],,,,2b/6b,,,,
{16}37,,3h[4:1],,,,8,8,2-5[8:1],,,,1-5[8:1],,,,
{16}4,,4h[4:1],,,,3,,1-5[8:1]/2-5[8:1],,,,,,,,
{16}37,,7h[4:1],,,,8,8,6-3[8:1],,,,7^2[8:1],,,,
{16}4,,4h[4:1],,,,5,,7,1,7,1,6,2,5,3,
{16}62,,6h[4:1],,,,1,1,7-4[8:1],,,,8-4[8:1],,,,
{16}5,,5h[4:1],,,,6,,8-4[8:1]/7-4[8:1],,,,,,,,
{16}2bpp4[8:1]/6b^1[8:1],,,,,,,,3b^8[8:1]/7bqq5[8:1],,,,,,,,
{16}15,,1h[4:1],,,,2x,1x,8x,,4bh[4:1]/6bh[4:1],,,,,,
{16}2-4[8:1],,3,,8-6[8:1],,5,,2-4[8:1],,3,,8-6[8:1],,5s1[4:1],,
{16}2,,,,,,,,,,28,,37,,46,,
{16}2-7[8:1],,4,,8-3[8:1],,6,,2-7[8:1],,4,,8-3[8:1],,6<4[4:1],,
{16}2,,,,,,,,,,6,4,6,,1,,
{16}7-5[8:1],,6,,1-3[8:1],,4,,7-5[8:1],,6,,1-3[8:1],,4z8[4:1],,
{16}7,,,,,,,,,,71,,62,,53,,
{16}4bw8[8:1],,,3,,,,,5bw1[8:1],,,6,,,,,
{16}3b/7b,,1,8,2,7,3,6,4x-1[8:1]/5x-8[8:1],,2x/7x,,,,,,
{16}2>6[4:1]/6,,,,,,1,,1h[16:3],,,6h[16:3],,,7,,
{16}7p3[8:1],,3,,,,8q4[8:1],,4,,,,6,,,,
{16}57,,,1pp4[16:9]/8qq5[16:9],,,24,,,,,,,,,,
{16},,,,7-3[8:1],,,,5-8[8:1]*-2[8:1]/7,,,,5,,,,
{16}7b<3[4:1]/3b,,,,,,8,,8h[16:3],,,3h[16:3],,,2,,
{16}2q6[8:1],,6,,,,1p5[8:1],,5,,,,3,,,,
{16}2/6qq7[4:1],,,,,,1,,1h[16:3],,,7h[16:3],,,3,,
{16}1w5[8:1]/3,,,,1^3s7^5[2:1]/Cf/B8/B2/B4/B6,,,,,,,,8b,,,,
{16}E7,,E6,,E5,,E4,,,,E7,,E6,,E5,,
{16}E4/Ch[4:3],,,,,,,,,,,,1,,,,
{16}E3,,E4,,E5,,E6,,,,E3,,E2,,E1,,
{16}E8/5p4[8:5],,,,,,,,2xb^7b[8:1],,,,,,,,
{16}1x-5[8:1],,,,18,,,,6h[16:3],,,7h[16:3],,,8,,
{16}8-4[8:1]/4,,2,,18,,,,25,,2-6[8:1]/5,,,,1,1,
{16}1x-5[8:1],,,,18,,,,6h[16:3],,,4h[16:3],,,2<6[16:6],,
{16}2b>6[4:1],,,,,,,,,,E5,C,E1f,,,,
{16}2b,5,3,4,2,5,3,4,1,,1h[4:1],,,,7b,,
{16}7b,4,6,5,7,4,6,5,8,2,8h[4:1],,,,1b,8,
{16}2b,4,3,5,4,6,5,7,4bh[8:1]/8bh[8:1],,,2bh[8:1]/6bh[8:1],,,4b^1[8:1]/8b^5[8:1],,
{16},,{48}D4/D8,A3/A7,D3/D7,A2/A6,D6/D2,,{16},,4x/8x,,1,5,2,6,3,7,4,8,
{16}5b,7,4,6,8,,61,,,,2x/4,,4x/5,,5x/7,,
{16}2b/8b,,6^1b[8:1],4^1b[16:1],5,,,,,,7x/5,,5x/4,,4x/2,,
{16}4xb,2,5,3,1,,1,2,5xb,4,6,5,7,,7,8,
{16}5xb,3,7,5,8/E5f,,,,,,25,,36,,47,,
{16}8h[16:3],,,1h[16:3],,,2,,7h[16:3],,,1h[16:3],,,3,,
{16}6bh[16:3],,,1h[16:3],,,4,,6h[16:3],,,Ch[16:3],,,4,,
{16}4xb-7[16:1]*-6[16:1],,,4b-1[16:1]*-2[16:1],,,4bw8[16:1],,,,,,,,48,48,
{16}4bw8b[16:1]/8b,,,,,,,{48}2x,3x,4x>5[48:108],{16}5x>5[4:9],,,,,,,,
{16},,,,,,,,,,,,,,,,
{16},,,,,,,,,,,,,,,,
E
