&title=Finite
&artist=Sta
&first=0
&des=Tail_R
&lv_5=14+
&inote_4=(178)
{1},,,,,,,
{8},,,,,,2/8,2/8,
{8}3/7,3/7,4/6,4/6,5w1[8:1],,,,
{8}2h[4:1]/1b,,8,,8/2,7,6/3,5-1[8:1],
{8},4-2[8:1],,8,8-5[8:1]*-3[8:1],,,,
{8}7h[4:1]/8,8,1,,1/7,2,3/6,4-8[8:1],
{8},5-7[8:1],,1,1-4[8:1]*-6[8:1],,,,
{8}2h[4:1]/1,1,8,,8/2,7,6/3,5-1[8:1],
{8},4-2[8:1],,8,8-5[8:1]*-3[8:1],,,,
{16}7h[4:1]/8,,8,,1,,,,1/7,,2,,3/6,,4,5,
{16}3,6,2,,7/1,,8,,8w4[8:1],,,,,,,,
{8}2h[8:1]/1b,1,8/2,,3/7,4,6/5,7-1[8:1],
{8},5-2[8:1],,8,8-5[8:1]*-3[8:1],,,,
&inote_5=(178){1},{4},
{1},
{1},
{1}4h[2:9]/5h[2:9],
{1},
{1},
{1},
{4},,,4h[8:1]/5h[8:1],
{24}3,4,5,6,,,4/5,,,3/7,,,2-5[8:1]/6-1[8:1],,,,,,2/6,,,,,,
{8}3b/4b,2,1/8,,5/6,4,3/1,8,
{16}1/7,,6,,5/3,,2,4,2-4[8:1],,1,,2/8,,,,
{8}6/5,7,8/1,,4/3,5,6/8,1,
{16}8/2,,3,,4/6,,7,5,7,,8,,7/1,2,3,4,
{8}5/6,7,1/8,,3/4,5,6/8,4,
{16}8/2,,3,,4/6,,7,5,7-5[8:1],,8,,7/1,,,,
{16}4/3,,2,,8/1,,,,5/6,,4,,3/1,,8,3,
{16}7,2,6,,5/3,,2,4,2>4[8:1],,1,,2/8,,,,
{8}3b/5b,2,1/7,,4/6,3,2/5,1,
{16}8/6,,7,,6/4,,3,4,3-8[8:1],,6,,3/8,7,6,5,
{8}4/1,7,2/8,,5/3,6,7/4,8,
{16}1/3,,2,,3/5,,6,5,6-1[8:1],,3,,6/1,2,3,4,
{8}5/8,2,1/7,,4/6,3,2/5,1,
{16}8/6,,7,,6/4,,3,4,3-8[8:1],,6,,3/8,,,,
{8}4/6,7,8/2,,5/3,6,7/4,8,
{16}1/7,,2/6,,,3/5,,,4w8[8:1],,,,4,,,,
{24}4/5,,,6,5,4,3,,,4/5,,,2bq5[2:5]/6,,,,,,,,,,,,
{1},
{2},7-4[2:1],
{2},{16}3,4,3,4,3,4,3,4,
{16}5,4,5,4,5,4,5,4,3p8[4:9],,,,,,,,
{1},
{2},6-1[4:1],
{4},{48}4/5,,,,,,3,,4,,5,,6,,,,,,3/7,,,,,,2,,1,,8,,7,,,,,,
{8}2-5[8:1],6-1[8:1],2b,6b,3b-8[8:1],,3/5,,
{16}6-1[8:1],,4,,6/5,,4,,3-8[8:1],,4,,3/5,,4,5,
{16}6-1[8:1],,5,,6/4,,,,2-5[8:1],,,,2/8,,,,
{16}7-4[8:1],,1,,7/8,,1,,2-5[8:1],,1,,2/8,,1,8,
{16}7-4[8:1],,8,,7/1,,,,3>8[8:1],,,,3/5,,,,
{16}6<1[8:1],,4,,6/5,,4,,3>8[8:1],,4,,3/5,,4,5,
{16}6<1[8:1],,5,,6/4,,,,2>5[8:1],,,,2/8,,,,
{16}7<4[8:1],,1,,7/8,,1,1,5,3,6,4,5,4,6,3,
{16}5,2,7,4,8,3,6,1,8-4[2:3],,,,,,3h[4:1],,
{16},,,,7h[4:1],,,,,,1h[16:10],,,,,,
{16},,,,,2,3,4,5/7,,8,,4/6,,8,,
{16}1,,5/3,,1,,8,,4/2,,8,,3,5,4,5,
{16}3,,2/6,,1,7,2,8,1-5[2:3],,,,,,6h[4:1],,
{16},,,,2h[4:1],,,,,,8h[16:10],,,,,,
{16},,,,,7,6,5,4/2,,1,,5/3,,1,,
{16}8,,4/6,,8,,5,3,4,3,5,,2/6,,8/4,,
{32}7b,6,5,4,,1b,2,3,4,,8b,7,6,5,,,2bv5[8:1],,,,,,,,2,,,,7v4[8:1],,,,
{16},,7,,1,,2/8,,3/7,,1,8,2,,2/8,,
{16}1,1,1,1,1,1,1,1,1-5[8:1],,,,1,,8-4[8:1],,
{16},,8,,2,,1/7,,2/6,,8,1,7,,8,8,
{16}8w4[8:1],,1/7,,8,,,,7b<4[8:1],,,,7,,2>5[8:1],,
{16},,2,,8,,7/1,,6/2,,8,1,7,,7/1,,
{16}8,8,8,8,8,8,8,8,8p4[8:1],,,,8,,1q5[8:1],,
{16},,1,,7,,2,8,1,7,2,,1/5,,3/7,,
{16}2h[1024:1],4,6h[1024:1],2,8h[1024:1],6,4h[1024:1],2,8qq4[4:13],,,,,,,,
{1},
{2},2v5[4:5],
{1},
{24},,,,,,6,4,6,4,6,4,6h[1:1],,,,,,,,,,,,
{2},{24}2b,1,8,7,6,5,3b,2,1,8,7,6,2b,1,8,7,6,5,3b,2,1,8,7,6,4V28[4:1]/5V38[4:1],,,,,,,,,,,,
{24},,,,,,2,3,4,5/6,,,8,7,6,5/4,,,1,2,3,4/6,7,8,
{32}1/5,4,3,2,1,8,7,6,{8}1b/5,,2/1-5[8:1],,1/7,8-4[8:1],
{16},,8/2,,1-5[8:1],,7,,1,,8-4[8:1],,1/7,,3,2,
{16}1b,,8h[8:1],,{24}2,3,4,1,2,3,8,1,2,7,8,1,6,7,8,5,6,7,
{24}4,5,6,3,4,5,2,3,4,1,2,3,{32}8,1,2,3,4,5,6,7,8/4,3,2,1,8,7,6,5,
{8}4-6[8:1],8-3[8:1],4,8,7-3[8:1],,1/7,,
{16}2-6[8:1],,3/1,,2,,8,,7-3[8:1],,6,8,7,,8,1,
{16}2-6[8:1],,1/3,,2,,8,,7v4[8:1],,,,1/7,,,,
{16}2v5[8:1],,1/3,,2,,8,,{24}7,8,1,2,3,4,8,1,2,3,4,5,
{32}1,8,7,6,5,4,3,2,1/5,6,7,8,1,2,3,4,5b-1[8:1],,,,,,,,3/5,,,,,,,,
{8}4-8[8:1],3/5,4,6,5b-1[8:1],,{16}3/5,,4,3,
{24}2/8,7,6,1,8,7,2,1,8,3,2,1,{32}4,3,2,1,4,3,2,1,3,2,1,8,3,2,1,8,
{32}4,5,6,7,4,5,6,7,5,6,7,8,5,6,7,8,4,3,2,1,8,7,6,5,4/8,1,2,3,4,5,6,7,
{8}8-2[8:1],4-7[8:1],8,4,3-7[8:1],,3/5,,
{16}6-2[8:1],,7/5,,6,,4,,3-7[8:1],,2,4,3,,4,5,
{24}8,6,8,6,8,6,1,3,1,3,1,3,{32}1b,2,3,4,,,7b/1h[8:1],6,5,4,,,2b/8h[8:1],3,4,5,
{32},,7b/1h[8:1],6,5,4,,,2b,3,4,5,8b,7,6,5,1b,2,3,4,5,6,7,8,1/5b,4,3,2,1,8,7,6,
{48}5/1b,2,3,4,5,6,7,8,1,2,3,4,5,6,7,8,1,2,3,4,5,6,7,8,5bqq1[1:1]/1bqq5[1:1],
E
