&title=恋のミクル伝説
&artist=朝比奈みくる
&first=-0.07
&des=&des
&lv_5=13+
&inote_5=(173){16},,,,,,,,,,,,,,7x/2x,,,,,7x/2x,,,7x,5x,4x,2x,,,7xh[48:11],{12},,5x,{16}5x-1[8:1],,,5x/6x,,,,{8}7,,72,,7,5,4,2,,7h[4:1],,5,5-1[8:1],,56,,
{8}7,6,5,3,4,5,6/7h[2:1],,2,3,4,6,5,4,1h[4:1]/3,,2,13,,7,68,,5,2/6h[4:1],,7,78,81,2^5[8:1]/1^6[8:1],,,,7h[2:1],,5,,6h[2:1],,8,,1,1^6[8:3],,1h[8:3],,,,,2h[2:1],,4,,3h[2:1],,1,,8,8^3[8:3],,8h[8:3],,,,,56,,4/7h[4:2],,6,,4h[4:1],,3,,18,,2,,4h[2:1]/2-6[4:1],,,,,,7,5,4,2,,72,,18,2-7[8:1]/1h[2:1],,,,6h[2:1],,8,,2h[2:1],,4,,5,5^2[8:3],,5h[8:3],,,,,7h[2:1],,5,,3h[2:1],,1,,2-7[8:4],3-6[16:6],,,,,,,24,,5/1h[4:2],,3,,4h[4:1],,6,,78,,3,,1h[2:1]/3-8[4:1],,,,,,7,5,4,2,,72,,18,78,6,5,4,3^8[8:1],,5-2[8:1],,1-6[8:1],,4-8[8:1],,5-1[8:1],,3-6[8:1],,2^7[8:1],,5-8[8:1],,4-1[8:1],,7-3[8:1],,6-2[8:1],,7-4[8:1],,4-8[4:3],,,3h[8:5],,,,,,,2,1,8h[4:1],,6-2[8:1],,1h[4:1],,3-8[8:1],,1-5[8:1],,7,,6^1[4:1],,1^4[4:1],,4^7[4:1],,7^2[8:2],,1h[8:8],,,,,3,4,5,6^1[8:1],,4-7[8:1],,8-3[8:1],,5-1[8:1],,4-8[8:1],,6-3[8:1],,7^2[8:1],,4-1[8:1],,5-8[8:1],,2-6[8:1],,3-7[8:1],,2-5[8:1],,5-1[4:3],,7^4[4:1],7,,,,,,,8,7,6h[4:1],,4h[4:1],,2,2h[8:5],8-3[4:1],,,,,,1-6[8:1]/4,,14,,1/4-7[8:1],,14,,2-6[8:6],,,,,,,,,7,5,7,3,24,15,6/8,7,7h[4:1],,6-1[16:3],,6/8^5[16:3],,,2,2h[4:1],,3-8[16:3],4,35,,7h[8:3],,5^8[2:1],4^1[16:3],,,,,2-6[16:3],,5,5h[4:1],,7-2[16:3],,67,,3-6[16:3],,23,,8,8h[4:1],,{16}7x,8x,7x,8x,7x,8x,7x,6x,7x,6x,7x,6x,5x,6x,5x,6x,5x,6x,{8}5x^8[16:3],,,2,3,7h[8:8],,5-8[8:1],,5^2[8:1],,5-1[8:1],,5,,,2,2h[4:1],,3-8[16:3],,3/1^4[16:3],,,7,7h[4:1],,6-1[16:3],5,64,,2h[8:3],,4^1[2:1],5^8[16:3],,,,,7-3[16:3],,4,4h[4:1],,2-7[16:3],,3-6[8:1]/2,,3/8-5[8:1],,84,,3,3h[16:18],,{32}1x,8x,7x,6x,5x,4x,,2x,1x,8x,7x,6x,5x,4x,,2x,1x,8x,7x,6x,5x,4x,,2x,1x,8x,7x,6x,5x-1[16:3],,,,{8},7,6,8,,3/4,,26,,47,5-2[2:1]/6-1[2:1],,,,,,,
7,6,5,34,23,12,78,16,2,3,4,65,76,67,2/8h[4:1],,3,4,5,67,58,14,28,71,6,5,4,32,14,14,7h[2:1]/3,,2-7[8:1],,2,,27,5,4,27,,7h[4:1],,5,5-1[8:1]/6-2[8:1],,5b/6b,,C,,,,,{1},E
