&title=白線
&artist=葛城リーリヤ
&first=9.959999
&des=Hisui
&des_5=Hisui
&seek=0.00
&wholebpm=181
&demo_seek=62.5
&demo_len=10.0
&lv_1=音
&lv_5=13+
&inote_1=(181)
{4}
1,1,1,1,1,1,1,1,
1,1,1,1,1,1,1,1,
1,1,1,1,1,1,1,1,
1,1,1,1,1,1,1,1,
1b,E,
&inote_5=(181)
{8}
1/3,,,5-2[8:1]/6,,5/6-1[8:1],,5/6,
,,2/8,,1/7-2[8:1],1/7,,,
3/4,,7,5/6,,1,2/4,,
{16}
8b,,5b/7b,,5b/7b,,,,3,4,3,4,3-8[8:1],4,3,4,
{8}
3b,,6-1[8:1],5/6,,4-8[8:1],4/6,,
{16}
5-1[8:1],,3/5,,2,,2h[4:1],,,,1,3/8,4/7,,,,
{4}
5-1[8:1],7h[4:1],4-8[8:1],2h[4:1],
5-2[8:1],8h[4:1],4-7[8:1],1h[4:1],
8^3[8:1],6h[4:1],1^6[8:1],3h[4:1],
{16}
8v3[8:1],,7^4[8:1],,8,,7,,,,3,4,3,4,3,4,
{4}
3>4[2:3],3,3,3,
2,1,8,7,
6<5[2:3],6,6,6,
7,8,1,2,
3^8[4:1],3,4^7[4:1],4,
{16}
8h[8:3],,,,,,7,1/6,2-6[8:1]/5h[4:1],,,,,,,,
{8}
4^1[8:1]/7,,5,5^8[8:1],,2/5,1,1,
1h[128:1],2h[128:1],3h[128:1],4h[128:1],5h[128:1],6h[128:1],7h[128:1],8h[128:1],
5-2[8:1],,5/7,,4-8[8:1],3,2/4,,
1-5[8:1],7-4[8:1],1,7,,3,3/5,,
4-7[8:1],,2/4,,5-1[8:1],6,5/7,7,
8-4[8:1],,8,1w5[8:1],,1,,7,
{4}
7^2[8:1],2,3p6[8:1],6,
{16}
5p4[4:1],,,,,,1,2,3-7[8:1],,,,,,5,,
{8}
5b-8[8:1],,,1h[4:1],,8,2/7,3/6,
4-8[8:1],6,4,5-1[8:1],3,5,4,,
5qq8[4:1],,,1,1w5[8:1],,1,,
5qq8[4:1],,,1,1w5[8:1],,1,,
4pp1[4:1],,,8,8w4[8:1],,8,,
4pp1[4:1],,4,,8w4[8:1],8,8,,
7V15[4:1],,4V26[4:1]/7,,4,,7,7,
7-3[8:1],,4/7,4w8[8:1],,4,,,
2V84[4:1],,2b/5V73[4:1],,5b,,2,2,
2b-6[8:1],,2/5,5bw1[8:1],,5b,,,
4/6-8[8:1],,5-1[8:1]/6,,5/7h[4:1],,8,1/6,
2-6[8:1]/5,,2/8,8w4[8:1],,8,,,
3-1[8:1]/5,,3b/4-8[8:1],,2h[4:1]/4b,,1,3/8,
4b/7-3[8:1],,1/7,1bw5[8:1],,1b,,7,
{16}
7h[16:3],,,5,,,1/2,,2h[16:3],,,4,,,7/8,,
{8}
7,1/6,1/6,2/5,3b/4bw8[8:1],,,,
5/6^1[8:1],,2,3,3/4-8[8:1],2,2,,
5/6^1[8:1],,2,3,3/4-8[8:1],2,2,,
3qq1[8:1],,3/5pp7[8:1],,2/5,2,3<7[4:1],3,
7>3[4:1],,3,,5,6,7,8,
1^4[8:1],5^8[8:1],1,5,2^5[8:1],6^1[8:1],2,6,
3,3/7>4[4:1],,4<1[4:1]/7,,,2-6[8:1],,
8h[4:1],,4,3/7-3[8:1],,2,2,2h[8:3],
{16}
1^6[8:1],,,,1,,,,4,3,2,1,8,7,6,5,
{8}
3^8[8:1]/4,,7,6,5-1[8:1]/6,7,7,,
3^8[8:1]/4,,7,6,5-1[8:1]/6,7,7-3[8:1],,
{4}
2-6[8:1]/7,2/8-4[8:1],1<3[4:1]/8,1b/8b>6[4:1],
{16}
,,,,,,,,1/8,,,2/7,,,3/6,,
7h[8:1]/8h[8:1],,,1h[8:1]/6h[8:1],,,2/5,,1h[8:1]/8h[8:1],,,2h[8:1]/7h[8:1],,,3/6,,
1h[8:1]/2h[8:1],,,3h[8:1]/8h[8:1],,,4/7,,5w1[8:1]/6,,,,,,,,
{8}
2-5[8:1],,2/6-1[8:1],,3/6,4,2qq4[4:3]/5,2/5pp3[8:5],
{1}
,
{8}
6,5,4,3h[8:3],,,,,
3,4,5,6h[8:3],,,,,
8-5[2:1],,8,,4,3,2,1,
8,7,6,5h[8:3],,,,,
2h[4:3],,,4h[8:3],,,,,
7h[4:3],,,5h[8:3],,,,,
1p8[2:1],,,5p4[2:1],,,,,
2,,3,3h[8:3],,,,,
{4}
5-1[2:1]/6,6,6,6,
2/5-1[2:1],2,2,2,
3-8[4:1],3/4,4-7[4:1],3/4,
{16}
1,,,,1/8,,,,2/7,,,3/6,,,4/5,,
{4}
4-6[8:1]/5,4/5-3[8:1],4-7[8:1]/5,4/5-2[8:1],
4-8[8:1]/5,4/5-1[8:1],4w8[8:1]/5,4,
{8}
1/7,2/6,3/5<4[8:3],,2-7[8:1],,,,
{32}
4,,5,,3,,6,,2,,7,,1,,8,,1b-5[8:1],2,3,4,5,6,7,8,1,,,,,,,,
{8}
4b>8[8:1],,4/7,6,5-1[8:1],5,1/5,,
4>8[8:1],,4/7,6,5-1[8:1],5,1/5,,
4qq2[8:1],,4/6pp8[8:1],,3/6,2,1bV35[4:1],1,
5V71[4:1],,1,,5,6,7,8,
7-5[8:1],6,4-2[8:1]/7,3,4/7-5[8:1],6,4-2[8:1]/7,3,
4/7,8w4[8:1],,8b,,2/6,3/7-2[8:1],,
4^1[8:1],,6b,,5^8[8:1],2,2b,,
{16}
1^6[8:1],,2,,1b/3,,4,,5,4,3,2,1,8,7,6,
{8}
5<1[8:1],,2/5,3,4-8[8:1],4,4/8,,
5<1[8:1],,2/5,3,4-8[8:1],4,4/8,,
{4}
2b-5[8:1]/6b,2b/7b-4[8:1],1b<3[4:1]/7b,1b/8b>6[4:1],
{16}
,,,,,,,,1/8,,,2/7,,,3/6,,
4h[8:1]/8h[8:1],,,3h[8:1]/7h[8:1],,,2/6,,1h[8:1]/5h[8:1],,,2h[8:1]/6h[8:1],,,3/7,,
4h[8:1]/8h[8:1],,,3h[8:1]/7h[8:1],,,2h[16:1]/6h[16:1],,1bw5[8:1]/5b,,,,,,,,
{8}
2/6-3[8:1],,2-7[8:1]/6,,2/4,5,3bqq5[2:1]/6b,3b/6bpp4[8:3],
{4}
,,,8z4[2:1],
3h[4:3]/8b,,,1s5[2:1],
1b/6h[4:3],,,,
{8}
7b^2[8:1],,3/7,4b-8[8:1],,4/5-1[8:1],6b,5,
{16}
2^7[8:1],,2b,,2,,,,6b,5,4,3,2,1,8,7,
{4}
5-1[8:1]/6,5/7,3/4-8[8:1],2/4,
5-2[8:1]/7,5/8,2/4-7[8:1],1/4,
{8}
2b-5[8:1],7-4[8:1],2b,7,1,1/8,2/7,3-8[8:1]/6,
,3/6,6-1[8:1],,4bw8[8:1]/6b,,4,,
{8}
1b/3b,,,5-2[8:1]/6,,5/6-1[8:1],,5/6,
,,2/8,,1/7-2[8:1],1/7,,,
6b/8b,,,3/4-7[8:1],,3-8[8:1]/4,,3/4,
{16}
,,7,1,7,,2/8-4[8:1],,,,7/8,,7,,,,
{8}
2b/4b,,,7/8-3[8:1],,7-4[8:1]/8,,7/8,
1,1/5^8[8:1],2,3/5^2[8:1],,5,,8,
4^1[8:1],1h[8:1],4,5^8[8:1],8h[8:1],5,4-1[8:1],1h[8:1],
4,5-8[8:1],8h[8:1],5,4b>5[4:1],1,4,,
1h[24:1],2,3,4b/5b<4[8:25],,,,,
{1}
,
,
,
,
,
,
E
