&title=ハート111
&artist=ゆーり
&first=0.65
&des=パーン666
&lv_5=13
&inote_5=(129)
{16}
6,5h[16:3],7,,6,5h[16:3],7,,6,5h[16:3],7,,6<8[10:1],5,7,,
4<6[10:1],,,,2>4[10:1],,,,8>2[10:1],,,,
6,,7h,,
{8}
5b/4b-6[10:1],,7,,5-3[10:1],,2,,
4-7[9:1],,6,,5-2[9:1],,3,,
4-8[8:1],,7,,5-1[8:1],,2,,3h[16:4],,
7-5[10:1],8,4-2[10:1],3,6h,,
5b/4b-6[10:1],,7h[8:1],,5-3[10:1],6,2h[8:1],,
4-6[10:1],,7h[8:1],,5-3[10:1],6,2h[8:1],,
4-6[10:1],,7h[8:1],,5-3[10:1],6,2h[8:1],,4h[16:4],,
7,18,2v3[8:1]/6v7[8:1],18,,,
4h[16:2]/5h[16:2],,
6,78,3,12,6,78,4,6,5pp5[12:3]*qq5[12:3],2,,,,,
1h[16:2]/8h[16:2],,
3-6[8:1],3,2-7[8:1],2,4,3,56,7,4pp4[12:3]/3,2,4qq4[12:3]/8h[16:4],,,,5h[16:2],,3,24,3,24,6,57,6,57,4qq4[12:3]*pp4[12:3],35,,,,,
2h[16:2]/8h[16:2],,36,47,36,25,36,47,3/5,6,7/8<2[12:3],3,2,1b,1b-5[8:1],1b,
4h[16:2],,
6,78,3,12,6,78,4,6,5pp5[12:3]*qq5[12:3],2,5,,,,
1h[16:2]/8h[16:2],,
3-6[8:1],3,2-7[8:1],2,4,3,56,7,4pp4[12:3]/3,2,4qq4[12:3]/8h[16:4],,,,5h[16:2],,3,24,3,25,6,47,6,57,4qq4[12:3]*pp4[12:3],35,4,,,,
2h[16:2]/8h[16:2],,36,47,36,25,36,47,3/5,6,7/8<2[12:3],3,2,1b,1bw5[10:1],1b,1b>8[12:15],,,,,,,,1,2,3,4,5-1[10:1],,,,{32}6b<5[12:11],7b,8b,,{8},,,,,,,,,2-4[10:1],1,5-7[10:1],6,1w5[10:1],,1b>8[12:15],,,,,,,,1,2,3,4,5-1[10:1],5,,,{32}6b<5[12:12],7b,8b,,{8},,,,,,,,,,,2v3[8:1]/6v7[8:1],,,,
4h[16:2]/5h[16:2],,
6,78,3,12,6,78,
35,2,4qq4[12:3]*pp4[12:3]/6,8,,,,,
1h[16:2]/8h[16:2],,
3-6[8:1],2-7[8:1],3,2,4,3,56,7,4pp4[12:3]/3,2,4qq4[12:3]/8h[16:4],,,,5h[16:2],,34,2,34,2,56,7,56,7,4qq4[12:3]*pp4[12:3],35,,,,,
2h[16:2]/8h[16:2],,36,48,36,15,36,48,3/5,6,7/8<2[12:3],3,2,1b,1b-5[10:1],1b,1,,
4-2[10:1]/6-2[10:1],78,46,,4/6-2[8:1],78,4-2[10:1]/6,5,46,8,46,,
5-7[10:1]/3-7[10:1],21,53,,
4-2[10:1]/6-2[10:1],78,46,,
{16}5/3-7[8:1],,2,4,
{8}3-1[10:1],6,3-5[10:1],5,3/7-3[8:1],8,3-5[10:1],1h[16:2],,,
8-6[10:1]/2-6[10:1],34,82,,8/2-6[8:1],34,8-6[10:1]/2,1,82,4,82,,
1-3[10:1]/7-3[10:1],65,17,,
8-6[10:1]/2-6[10:1],34,82,,
{16}1/7-3[8:1],,6,8,
{8}7-5[10:1],2,7-1[10:1],1,7/3-7[8:1],4,7-1[10:1]*-5[10:1],,,,
46,78,35,12,46,78,35,7,4qq4[12:3]*pp4[12:3]/6,1,4,,,,
1h[16:2]/8h[16:2],,
3-6[8:1],4,2-7[8:1],1,4,3,56,78,4pp4[12:3]/3,21,4qq4[12:3]/8h[16:4],,,,5h[16:2],,34,21,34,12,56,78,56,78,4qq4[12:3]*pp4[12:3],35,4,,,,
2h[16:2]/8h[16:2],,45,67,45,23,45,67,34,12,7/8<2[12:3],3,2,1b,1b-5[10:1],1b,
E
