&title=雨ニ酔ウ
&artist=あめのむらくもP
&first=0.1
&des=LiorainP
&des_5=LiorainP
&lv_5=14
&inote_5=(133){4},{8}3h[8:1],{16}4,3,{4},{8}4h[8:1],{16}3,4,
{4},{8}2h[8:1],5,5h[8:1],{16}3,3,6h[8:1],4,,4,
{8}6/4h[8:1],6,6h[8:1],{16}5,6,{4},{8}5h[#0.225564],{16}6,5,
{4},{8}7h[8:1],4,4h[8:1],{16}6,6,3h[8:1],5,,5,
{8}6/2,2/6,2h[8:1],{16}1,2,{8}1,1,1h[8:1],{16}2,1,
{8}2,2,3h[8:1],8,8h[8:1],{16}2,2,7h[8:1],1,,1,
{8}7/1h[8:1],7,7h[8:1],{16}8,7,{8}8,8,8h[8:1],{16}7,8,
{8}7,7,6h[8:1],1,1h[8:1],{16}7,7,2h[8:1],8,,8,
{8}3/7,3/7,{4}5-7[12:1],{8}8/5-3[12:1],8,5-7[12:1],2,
5-3[12:1],8,5-7[12:1],2,8p3[4:1],8,{4}B5,
{8}B7,4,{4}4-2[12:1],{8}1/4-6[12:1],1,4-2[12:1],7,
4-6[12:1],1,4-2[12:1],7,1,1,{4}5-2[32:3]/1-6[32:3],
5/1,{8}3,1,1<6[8:1],2,3/1,3,
3/5,4,6,8,8>3[8:1],7,6/8,6,
6/4,5,4,5h[8:1],4-1[32:3],5h[8:1],4,5h[8:1],
,1/5h[8:1],,2/5h[8:1],3,4/5h[8:1],{24}4,3,2,5,6,7,
3-6[32:3],2,1,6,7,8,{4}3,{16}7h[8:1],4,4V28>4[8:3],6,{8}3,4,
,6,7-5[12:1],8,1,2<6[6:1],,3-7[32:3],
,4,,2,{16}2h[8:1],5,5V71<5[8:3],3,{8}6,5,
,3,2-4[12:1],1,8-2[12:1],7,6-8[12:1],5,
4-6[12:1],4,,3,{16}3h[8:1],8,8V64<8[8:3],2,{8}7,8,
,2,3-1[12:1],4,5-7[12:1],6,,2,
8/2h[4:1],8,{32}8,7,6,5h[32:13],{4},{8}8,{32}8,1,2,3h[32:5],{8},5,
6h[8:1]/2h[8:1],{2},{4}1h[8:3],
{8},{32}7,8,1,2,{4}3bq6[2:1]*q5[2:1],,{8},C,
{4},{8}8-6[12:1],1,2,3-7[8:1],,3,
,4,4-1[8:1],3,4-7[8:1],5,4-2<1[8:1],3,
4-6<7[8:1],5,4>3-1[8:1],3,4<5-7[8:1],5,4>1[8:1],3,
4<7[8:1],5,{4}4bx,{32}1,2,{16}3h[16:7],{8},7,7,
6,5>3[12:1]*<7[12:1],,5pp1[2:1],,5h[2:1],{2},{8}4V68[2:1],
5,6-8[4:1],7,3V57[2:1],4,
5-7[4:1],6,2-8[12:1],3,{4}4b,{8}E8,E7,
E6/1>4[32:3],1/E5,5-8[32:3],6,3qq4[4:1],4,1,8,
7>2[32:3],6,7/5-8[32:3],5,5/4-1V35[4:1],3,6/4,7,
{4}8,{8}8-5[32:3],7,4>1[32:3],3,6pp5[4:1],5,
4,3,2<7[32:3],3,2/4-1[32:3],4,4/5pp2[4:1],6,
4,3,3>8[32:3],4,7-4[32:3],6,1pp8[4:1],8,
7,6,5>2[32:3],6,5/7-4[32:3],7,7/8>3[32:3],1,
{4}6/8,{8}6<1[32:3],6,2-5[32:3],3,8qq1[4:1],1,
2,3,4<7[32:3],3,4/2-6[32:3],2,2/1w5b[32:3],8,
{4}1bpp7[8:27],{8}B6,B5,B4,B3,B2,B3,
B4,B5,B6,B5,B4,B3,B2,B3,
B4,B5,{4}5xh[4:1],{8},5h,4h,3h,
2h,2h,3h[32:1],4h,5h[32:1],5h,5/8h[48:1],7/4h[48:1],
6h[48:1]/3-5[12:1],5/2h[48:1],7/3-1[12:1],6,7/3-5[12:1],8,7/3-1[12:1],6,
7/3-5[12:1],8,3/6pp1[2:1],6,4,4h[8:3],{4}E8/B7/B8,
{8},6,6-4[12:1],1,2/6-8[12:1],3,2/6-4[12:1],1,
2/6-8[12:1],3,2/6,1,2/5,3,{4}3v8[8:1]/7-4[8:1],
,{8}1,7,7<6-4[8:1],8,1/7,1,
1/3,2,4,6,6<7-1[8:1],5,4/6,4,
4/2,3,2,3h[8:1],2-7[32:3],3h[8:1],2,3h[8:1],
,7/3h[8:1],,8/3h[8:1],1,2/3h[8:1],{48}2,1,{24}8,{6},{48}1-4[12:1],
8-5[16:1],{24}7,{6},{4}1/8,{16}7h[8:1],4,4-1<8-3<4[8:3],6,{8}3,4/5h[16:1],
,6,7-5[12:1],{16}8,8,{8}1,2V86[6:1],,3-7[32:3],
,4,,2,{16}2h[8:1],5,5-8>1-6>5[8:3],3,{8}6,5/4h[16:1],
,3,2-5[32:3],1,8-3[32:3],7,6-1[32:3],5,
4<8[32:3],3,{4},{16}3h[8:1],8,8-5>4-7>8[8:3],2,{8}7,8/1h[16:1],
,2,3-1[12:1],{16}4,4,{8}5,6-8[12:1],,2/6,
3,4,{32}1/4h[4:1],8,7,6,{4},{8}3,{32}8/3h[4:1],7,6,5h[32:5],{4},{8}6h[8:1]/2h[8:1],
{2},{4}4h[8:3],
{8},{32}6,5,4,3,{4}2bpp7[2:1]*pp6[2:1],,{8},B3/B4/E4,
{4},{8}5V71[8:1],4,3,2w6[32:3],,2,
,1,1V35[8:1],3,1V75[8:1],7,1-3<4<5[8:1],3,
1-7<6>5[8:1],7,1>2-4<5[8:1],3,1<8-6>5[8:1],7,1>5[8:1],3,
1<5[8:1],7,{4}1bx,{32}4,3,{16}2h[16:7],{8},6,6,
7,8>2[12:1]*<6[12:1],,8qq4[2:1],,8h[2:1],{2},{8}1<5[2:1],
8<5[8:3],7<5[4:1],6,2<6[2:1],1<6[8:3],
8<6[4:1],7,3,2,{4}1bh[4:1],{8}E8,E7,
E6/1-4[32:3],1/E5,5<8b[32:3],6,3qq2-4[4:1],4,1,8,
7-2[32:3],6,7/5-8[32:3],5,5/4-1V35b[4:1],3,6/4,7,
{4}8,{8}8<5[32:3],7,4-1b[32:3],3,6pp7-5[4:1],5,
8,1,2-7[32:3],3,2/4-1[32:3],4,4/5pp2[4:1],6,
4,3,3-8b[32:3],4,7-4[32:3],6,1v4-2-8b[4:1],8,
7,6,5-2b[32:3],6,5/7-4[32:3],7,7/8v3b[32:3],1,
{4}6/8,{8}6-1b[32:3],6,2-5[32:3],3,8v5-7-1b[4:1],1,
2,3,{12}4h,4h,4h,2h,2h,2h,8-4b[12:1],8h,8h,
{4}6b,3h[8:3]/7h[8:1],,{8}B7/E7/Ch[16:1],E6,
E4,B2/E3,5x,5x,{16}1h[4:1],{8},{16}7,7,8,7,8,
{4},{8}8h[8:1],6h[8:1],7h[8:1],5h[8:1],8h[8:1],5h[8:1],
7h[8:1],6,{4}E2,6h[8:1],6h[8:1],
{32}6,7/5,{16}8/4,{8},{4}2h[8:1]/6h[8:3],,{8}B2/E3/Ch[16:1],E4,
E6,B7/E7,4x,4x,{16}8h[4:1],{8},{16}2,2,1,2,1,
{4},{8}1h[8:1],3h[8:1],2h[8:1],4h[8:1],1h[8:1],4h[8:1],
2h[8:1],3,{12}2h,2h,2h,8h,8h,8h,6h,6h,6h,
4h,4h,4h,4b>8[2:1],{6},{4}A2,8<4[2:1],
A6,4>8[2:1],A2,8<4[2:1],
A6,4V28[2:1],A2,8V64[2:1],
A6,4V28-6[4:3],{2}A2,
{8}5,5,{4}5<1[2:1],A7,1>5[2:1],
A3,5<1[2:1],A7,1>5[2:1],
A3,5-7-1[2:1]*V31[2:1],{2},{4}B1,
Ch[2:1],,,{8},{16}5x,
6x/4x,{4}7xh[4:23]/3xh[4:23],{1},,,,,{4},,{16},,,{32}3/7,
4/6,{4}5b-1b[8:1],,6b-2b[8:1],
,{8}7b-3b[8:1],7,7/8,8,{16}8,7,8,7,
{32}8,1,2,3,4/5,6,7,8,{8}1/2b-6b[8:1],1,2/8-5[8:1],7,8/2b-5b[8:1],{16}3,3,
{8}2/8-6[32:3],7,2/8b-5b[8:1],{16}2,2,{8}3/8-4[8:1],3-1[16:1],3/8bw4b[8:1],3,
{4}8,{8}1/7b-3b[8:1],{16}8,8,{8}7/1-5[8:1],8,1/7b-4b[8:1],{16}6,6,
{8}7/1-3[32:3],2,7/1b-4b[8:1],{16}7,7,{8}6/1,6,6/2bV46b[8:1],2/6>2[8:1],
{4}2/6,{8}8b-4b[8:1],{16}1,1,{8}8/2-6[8:1],1,2/8b-5b[8:1],{16}7,7,
{8}8/2-4[32:3],3,8/2b-5b[8:1],{16}8,8,{8}7/2,7,{256}3bq3<7b[2:3],7bq7>3[256:383],{16},{64},,,{128},{8}5/1,
{1}7b/3b,
{4},,,3/6h[4:1],
3,{16}3,4,{8}3,3h[4:1],{16}4,4,{8},4,
4h[4:1],{16}5,5,{8},5,5h[4:1],{16}6,6,{8},6,
6h[4:1],{16}7,7,{8},7,7-3[32:3],{16}8,8,{8}7,8,
8-4[32:3],{16}1,1,{8}8,1,1-5[32:3],{16}2,2,{8}1,2,
2-6[32:3],{16}3,3,{8}2/4-7[8:1],3,2-5[32:3],1,8-3[32:3],7,
6-1[32:3],5,4-7[32:3],3,2-5[32:3],1,8-3[32:3],{16}7,7,
{8}6,5,5-2[32:3],6,7-4[32:3],8,1-6[32:3],2,
3-8[32:3],4,5-2[32:3],6,7-4[32:3],8,1-6[32:3],{16}2,2,
{8}3,4,4-7[32:3],3,4/2-5[32:3],1,2/8-3[32:3],7,
8/6-1[32:3],5,6/4-7[32:3],3,4/2-5[32:3],1,2/8-3[32:3],{16}7,7,
{8}6/8,5,7/5-2[32:3],6,5/7-4[32:3],8,7/1-6[32:3],2,
1/3-8[32:3],4,3/5-2[32:3],6,5/7-4[32:3],8,7/1-6[32:3],{16}2,2,
{8}3/1,4pp8[8:19],
