&title=NOIZY BOUNCE
&artist=八王子P feat. ななひら・まめこ
&first=0.1
&des=clw
&lv_5=14
&inote_5=(150.0)
{1},
{64}E1,E2/E8,E3/E7/Cf,E4/E5/E6,4x>5[24:29]/5x,,,,
{24},,,
{8}
,,,,,,
{1},
{8}3,4,,6,5,,2,4,
{16}
E6,B5,E2,B1,4x,8x,5x,1x,6x,2x,7x,3x,8x-4-8[16:3],,,,3-7-3[16:3],,,,6-2-6[16:3],,,,4-8-4[16:3],,,,5-1-5[16:3],,,,2-4-8[16:3],,,,6-8-4[16:3],,,,1w5[8:1]/6,,,,1,,,,2/4x,,2/4x,,3x/5,,3x/5,,4/6x,,4/6x,,5x-1[8:1]/7,,5x/7,,,,8,7,6,,2,,3h[8:1],,,4h[8:1],,,5b/6b,,,,6,,5,,6,,7-5[8:1],,5-1[8:1],5,,,2,,,,3,,4,,3,,2-8[8:1],,8-4[8:1],8,,,7,,,,6,,5,,7,,8^3[8:1],,6,6,,,7,,81,,56,,81,,34,,8-3[8:1],,3>8b[8:1],,8^5[8:1],
,,,,,
{8}3h[8:1],4,3h[8:1],5,
{16}3h[16:1],5,,3h[16:1],5,,
{24}45,,,4,3,5,
{8}2V46[4:1],6,
{16}
2,,8w4[8:1],8,,,8,,,,7-1-5^3[4:1],,1,,7,,2h[8:1],,,2qq4pp6[110#6:3],,,32,,,,,,,,,,,,,,,,,,7h[8:1],,2,3,4,,18,,7h[8:1],,3,4,5,,18,,7h[8:1],,4,5,6,,18,,2,7,1,8,4,5,3,6,2-6[8:1],,
{24}E5,B5,B6,E7,,,8b^5[8:1],,,,,,8q4[8:1],,,,,,5,,,
{8}
7-3[8:1],
{24}E5,B4,B3,E3,,,1b^4[8:1],,,,,,1p5[8:1],,,,,,4,,,
{16}2h[8:1],,7,6,5,,81,,2h[8:1],,6,5,4,,81,,2h[8:1],,5,4,3,,81,,3,8,2,7,1,6,2,7,3-7b[8:1],,7,6,5,,8<4[4:1],,,,3h[4:1],,,,,,1,2,1,3,2,3,1,2,4,5,2,3,5,6,8b/Cf,,4>5b[2:1],,,,,,,,5s1[2:1]
,,,,,,,,7<8b[2:1],,,,,,,,8-4[4:1],,,,,,,,3h[4:1],,,,,,1,2,3h[4:1],,,,,,8,1,2h[4:1],,,,,,7,8,1h[4:1],,,,E5,,E1,,7,,5,Ch[16:3],,,6b,,2,,4,Ch[16:3],,,3b,,13,,46,,13,,46,,7-5[8:1]/5-1[8:1],,,48,75,,C,,2,3,2,6,5,6,1,8,1,8,2,7,3,6,4,5,
{12}4x,4x/8,4x,5x,5x/2,5x,3x,3x/7,3x,6x,6x/2,6x,B2/B7/B1/B8/E8/E2/D2/D8/Cf,,,,,,
{16}
2-7[12:1]/6-3[12:1],,,,,,,,1h[8:1],,4,2,7h[8:1],,5,6,3,4,2,5,34,25,34,,8h[8:1],,5,7,2h[8:1],,4,3,6,5,7,4,65,74,38,,2h[8:1],,6,5,2,1,5,4,1,8,2,6,3,7,84,,
6b,5,,6b,5,,37,,
3b,4,,3b,4,,25,,
{16}8h[8:1],,2,3,8,5,6,2,4,3,5,4,6,3,45,,2h[8:1],,8,7,2,5,4,8,6,7,5,6,4,7,65,,4^1[8:1],,4,,8^5[8:1],,8,,3^8[8:1],,3,,7^6v5[1:1]*-3b[16:1],,7,,Cf,,,,,,,,,,,,,,,,2,,4,3,4,,7,6,7,,1,2,3^6[8:1],,7-3[8:1],,3-8[8:1],,7,,2h[8:1],,
{24}
E3,B3,,6,,,5/B4,E5,,3xh[8:1],,,E7,B6,,7x-4[8:1],,,E3,B3,7,,,,1h[8:1],,,3h[8:1],,,5h[8:1],,,7>3[4:1],,,1>5[4:1]*>5[4:1],,,3<7b[24:5],,,,E4,,,,,C,,,
8,1,2,3,4,5,6b/Cf,,,,,,
{8}
,1h[4:1],3,8h[4:1],6,
{16}1^4[8:1],1,6,,1,,
{24}7h[8:1],,,E3,B3,,6h[8:1],,,B4,E5,,7h[8:1],,,E3,B3,,5-8-5[2:1],,,B4,E5,,
{16}8-5b[4:1],,,,5-2[4:1],,,,2<6b[4:1],,,,6,,,,4,4,5,5,6,6,7,7,8,8,1,1,2,2,3,3,
{1}4<4[1:1],
5<5[1:1],6>6[1:1],5>5[1:1],
3h[1:1],4h[1:1],5h[1:1],
{8}6h[4:3],,,,,,,,1b>5[4:1],,,,7<3[4:1],,,,2hb[4:1],,8-5[8:1],,3^8[8:1]*^6[8:1],,,,7hb[4:1],,,25,3h[4:1],,,37,8hb[4:1],,,51,4-1[8:1]/8-5[8:1],,,,
{16}2b^5[8:1],,,1,,,8,,7b^2[8:1],,,6,,,5,,4b-8[8:1],,,2,,,3,,5b/6,,,57,,,48,,1b,2,1,4b,3,4,2b,5,3b,6,4,7b,2,5,3b,8,
{12}
2x,26,2x,5x,58,5x,1x,16,1x,8x-4b[12:1],38,8x,Cf,,,,,,4-1[8:1]/5-8[8:1],,,,,,
{16}8hx[8:1],,5,7,2h[8:1],,4,3,6,5,7,4,65,74,65,,1h[8:1],,4,2,7h[8:1],,5,6,3,4,2,5,3/4,25,6b/1b,,7h[8:1],,3,4,7,8,4,5,8,1,7,3,6,2,15,,
3b/4,3b/4,,3b/4,3b/4,,62,,
6b/5,6b/5,,6b/5,6b/5,,74,,1h[8:1],,7,6,1,4,3,7,5,6,4,5,3,6,54,,7h[8:1],,1,2,7,4,5,1,3,2,4,3,5,2,3b/4b,,5^8[8:1],,5,,1^4[8:1],,1,,6^1[8:1],,6,,2^3v4[1:1]*-6b[16:1],,2,,Cf,,,,,,,,,,,,,,,,
{128}
,,,,,,,,,,,,,,
{16}6,,5,,6,,2-4[8:1],,4-8[8:1],4,,,7,,,,3,,4,,3,,7-1[8:1],,1-5[8:1],1,,,2,,,,6,,5,,7,,1^6[8:1],,3,3,,,2,,18,,43,,18,,65,,1^4[8:1],,
{24}5,6,7,8b,,,,
,,,,,
{8}6h[8:1],5,6h[8:1],4,
{16}6h[16:1],4,,6h[16:1],4,,
{24}54,,,5,6,4,
{8}7^4[8:1],3,
{16}
7-1b[8:1]/2-6[8:1],,3,3,,,,,,,2,4,3,,7,5,6,,
{24}8w4[8:1],17,26,35,,,8,,,
{4}Chf[2:1],,1b^4[8:1]*^6[8:1],
&inote_6=(150)
{1},,,,,,,,,,,,,,,,,,,,,,,,,,,,,,,,,,,,,,,,,,,,,,,,,,,,,,,,,,
{8}1b>5[4:1],,,,7<3[4:1],,,,2hb[4:1],,8-5[8:1],,3^8[8:1]*^6[8:1],,,,7hb[4:1],,,25,3h[4:1],,,37,8hb[4:1],,,51,4-1[8:1]/8-5[8:1],,,,
{16}2b^5[8:1],,,1,,,8,,7b^2[8:1],,,6,,,5,,4b-8[8:1],,,2,,,3,,5b/6,,,57,,,48,,1b,2,1,4b,3,4,2b,5,3b,6,4,7b,2,5,3b,8,
{12}
2x,26,2x,5x,58,5x,1x,16,1x,8x-4b[12:1],38,8x,Cf,
