&title=炉心融解
&artist=iroha(sasaki)
&first=-0.95
&des=Sawako to Kaonashi
&des_5=Sawako to Kaonashi
&lv_5=13+
&inote_5=(165){4},{16},,,,,,,,,,,,2-6[0.7273##0.3636],
3,{8}4,{16},,,,,,,,,,,,8-4[0.7273##0.3636],
7,{8}6,,,{2}8<5[0.7273##0.2727],
{16}1,2,3,4,{1},,{4},{8}8,
1h[8:3],{16}5<8[16:3],4,{8}3,
{16}5,2,3,4,5/1-5[8:1],2,{8}3,{4}5/1,4/7,
{8}4/7<4[8:1],8,{4}7/4,7<4[8:1]/4>1[8:1],7/4-8[8:1],
{8}4<7[8:1]/1>4[8:1],2,{4}1/4,8-5[8:1]/5-2[8:1],5/8,
{8}5/2>5[8:1],1,{4}2/5,2>5[8:1]/5<8[8:1],2/5-1[8:1],
{8}8<5[8:1]/5>2[8:1],7,{4}8/5,1-4[8:1]/4-7[8:1],1/4,
{8}4/7-4[8:1],8,{4}7/4,7<4[8:1]/4>1[8:1],7/4-8[8:1],
{8}4<7[8:1]/1>4[8:1],2,{4}1/4,5-2[8:1]/8-5[8:1],5/8,
{8}5/2-5[8:1],1,{4}5/2,1>4[8:1]/4<7[8:1],1/4-8[8:1]*-8[8:1],
1>4[8:1]/4<7[8:1],4/1-5[8:1],{8}1,8h[2:1],,,,7V15[4:1],
,5V73[4:1],,3V51[4:1],,1V37[4:1],
{4}1,8-4[8:1],{8}8,1h[2:1],,,,2V48[4:1],
,8V26[4:1],,6V84[4:1],,4V62[4:1],
{4}4,1-5[8:1],{8}1,8h[2:1],,,,7<3[4:1],
,3>7[4:1],,7p3[4:1],,3p7[4:1],
{4}3,8-4[8:1],{8}8,1h[2:1],,,,2>6[4:1],
,6<2[4:1],,2-6[8:1],,3,
{2}1w5[8:1],{8}5s1[8:3],,,4,
5,,,2,1/8-4[8:1],7,8/2-6[8:1],3,
{4}7/2,{8}7/8-4[8:1],8,1/8,,,4/7,
{4}6,{8}2/5,3-7[8:1],,3/1-5[8:1],2,8/1,
,,,5-3[8:1]/2-6[8:1],3/6,,,2-8[8:1]/7-3[8:1],
3/8,,,2/6,{4}3/5,{8}5/4,3,
6/2,7,8/4,3,6/2h[4:5],,,7-4[16:1],
{4}7,{8}3-6[16:1],3,,8-5[16:1],{4}8,
{8},8/1,1>4[8:1],8,{4}1/7h[4:1],{8}2-6[8:1],6-3[8:1],
3-7[8:1],7>2[8:1],2>5[8:1],5<8[8:1],,,,,,5/1,
3v6[8:1]/7v2[8:1],5/1,{4}3/7,1-6[8:1]/5-2[8:1],
5/1-5[8:1],{8}1,8V63[8:1],,1/8-3[8:1],2,7/8,
,6-4[8:1],4-6[8:1],6-8[8:1],{4}1-5[8:1],1-3[8:1],
{8}1-7[8:1],5-1[8:1],1,5w1[8:3],,,,,,2-7[8:1],
6-3[8:1],2,{4}6,4<7[8:1]/8>3[8:1],
4/8,{8}4/5,8z4[8:1]/1s5[8:1],,1>4[8:1]/8<5[8:1],,1/8,
,1-5[8:1],7-3[8:1],1,{4}7,{8}7-4[8:1],8-2[8:1],
7-3[8:1],8-4[8:1],7-5[8:1],8>3[8:1],7-4[8:1],8-3[8:1],7,8,
,2/6,3/7,4/8,{4}1-6[8:1]/5-2[8:1],1/5,
{8}3/7,6-3[8:1]/2-7[8:1],3/7,2/6,,8,5/1-5[8:1],3,
5/1-6[8:1],7,5/1-4[8:1],4,{4}1-7[8:1]/5-3[8:1],1/5,
{8}8/1-6[8:1],2,3/1-4[8:1],2,7/1-5[8:1],8,1/3,2,
,1/8,3-1[8:1]/6-8[8:1],2/5,{4}3-5[8:1]/6-2[8:1],3/6,
{8}1/5,2v8[8:1]/6v4[8:1],1/5,2/6,,5-8[8:1]/1q2[8:11],4/8,1/5q6[8:9],
,,,,,,,,,,,,1/5<7[8:1],
4/8,{16}1-5[8:1],2,{8}3,
5/1b-6[8:1],6,1-4[8:1],4,1<6[8:1],6,{4}1>5[4:1],
{8}5<1[4:1],,,5w1[8:1],,5>6[8:5]*<4[8:5],,5,
,,,,,3qq3[4:1],5pp5[4:1],3,
{4}5,{8}3,1/5,,6pp8[8:1]/2pp4[8:1],8<1[2:1]/4>5[2:1],6/2,
,,,,,8/4,1/5,{32}1,2,3,4,
5,6,7,8,1,2,3,4,5,6,7,8,{8}1-5[8:1],,5/1,{16},,,,1/5,
2,3,4,5/1,6,7,8,1/5,4,3,2,1/5,8,7,6,
{4}1-3[8:1]/5-7[8:1],1-6[8:1]/5-2[8:1],1-5[8:1]/5-1[8:1],5/1,
{8}8b-3[8:1],3,8-5[8:1],5,8>3[8:1],3,{4}8<4[4:1],
{8}4>8[4:1],,,4w8[8:1],,4<3[8:5]*>5[8:5],,4,
,,,,,4qq4[4:1],6pp6[4:1],4,
{4}6,{8}4,2/6,,2V47[8:5]/6V83[8:5],,6/2,
,,,,,6/2,1/5,4/8,
{24}7,6,5,4/8,1,2,3/7,6,5,8/4-8[8:1],,,,,,{8}4/8,6,2,
{16}8/4,7,6,5,4/8,3,2,1,8/4,5,6,7,8/4,1,2,3,
{4}8-6[8:1]/4-2[8:1],8-3[8:1]/4-7[8:1],8-4[8:1]/4-8[8:1],8/4<8[8:1],
{32}8,1,2,3,{8}4,
E
