&title=[SD] WAVE (ft. Lily)
&artist=niki reverse
&first=0
&des=Iamuss76
&lv_5=13
&des_5=Iamuss76
&inote_5=
(130){4},,,,6h[2:1],
4,3h[2:1],5,
6h[2:1],5,3h[2:1],4,
5h[2:1],1,4h[2:1],8,
5h[4:1],3h[4:1],8w4[8:1],8,
{16}5,4,{8}6,{16}4,5,{8}3,{16}7,4-8[8:1],{8}6,{16}3,4,,,3,
6,2,5,4,6,,,3,4,3,4,1,7,,,4,
5,{8}3,{16}5,4,{8}6,{16}2,5-1[8:1],{8}3,{16}6,5,,,6,
5,7,4,6,3h[16:3],,,4,,,8/1,{8}8/1,2/7,
6,{16}4,6,,3,{8}6,{16}2,2,,5,,1,{8}1,
7,2,{16}6,6,,4,5,3,6,4,{8}5,7,
3,{16}5,3,,6,{8}3,{16}7,7,,4,,5,{8}3,
{16}8-4[0.4615##0.1538],,{8}1-5[12:1],8,1,7,{24}1,2,3,{8}4,1b/8b,
7/5,{16}6,5,,5,{8}4,6,5,3,4,
2/4,{16}3,4,,4,{8}5,5/6,{16}2,1,,,{8}7,
4/8,{16}3,4,,4,{8}5,7,5,2,4,
5/1,{16}6,5,,5,{8}4,4/3,{16}7,8,,,{8}4,
{4}5/4>1[4:1],1<6[4:1],6>3[4:1],{8}2,1,
{4}8h[8:5],{8}2,1h[4:1],,,1-4[12:1]/8-5[12:1],2/7,
8b/1b,{16}7,5,,2,{8}4,2h[8:1],4h[8:1],5h[8:1],7,
7,{16}2,4,,7,{8}5,6h[8:1],8h[8:1],4h[8:1],3,
2-5[12:1]/1-6[12:1],3/8,{4}2/1,{8}7-4[12:1]/8-3[12:1],6/1,{4}7/8,
{8}1/2pp5[8:3],1,8/2,7,6,7,8/1,4/3,
8b/7b,{16}2,4,,7,{8}5,2h[8:1],4h[8:1],5h[8:1],7,
7,{16}2,4,,7,{8}5,6h[8:1],8h[8:1],4h[8:1],3,
8/7,{16}2,5,,3,{8}6,2h[8:3],4,8,5,
8-3[12:1],1-6[12:1],8,1,8<1[16:3],1,{4}8,
{16}4h[16:3],,,3h[16:3],,,{8}2h[8:1],{16}5h[16:3],,,6h[16:3],,,{8}7h[8:1],
{4}2>7[4:1],7<2[4:1],2v5[8:1],6b,
{8}8h[4:3]/6h[4:3],,,,,,,7/1,
2h[4:3]/8h[4:3],,,,,,,3/1,
{2}2h[4:1]/4h[4:1],3h[4:1]/1h[4:1],
{4}2/8,7/1,6/8,5h[8:1]/4h[16:3],
{16}6b,5,8,1,{8}4h[8:1],3h[8:1],{16}7,8,6,8,5,8h[16:3],,,6,
5,7,4,{8}6h[8:1],5,{16}3-8[12:1],4-7[12:1],2,5,3,4,,,2,
1,3,4,1,8,4,5,8,7,5,6,4,5h[16:3],,,1-4[12:1],
8-5[12:1],2,7,1,8,,,4/3,,,8/7,{8}8/7,6/1,
{4}2-7[4:1],7-4[4:1],4-1[4:1],{8}1,8,
7h[8:5],8,1,2h[4:1],,,1-5[12:1]/8-4[12:1],2/7,
8b/1b,{16}7,5,,2,{8}4,6/5,5/4,4/3,2/1,
8/7,{16}2,4,,7,{8}5,1/2,4/5,8/7,4/3,
8-3[12:1],4,8-5[12:1],4,8,4,3/8,2,
1-6[12:1],5,1-4[12:1],5,1,7,8-4[12:1]/1-5[12:1],2/7,
8b/1b,{16}2,4,,7,{8}5,3>7[8:1],7>3[8:1],3,5,
6,{16}7,5,,2,{8}4,7<3[8:1],3<7[8:1],7,1,
2,{16}6,6/4,,3,{8}5/3,8/7,4,1/2,5,
1-6[12:1],8-3[12:1],1,8,1w5[12:1],8,{4}1,
{16}5h[16:3],,,3h[16:3],,,{8}2h[8:1],{16}4h[16:3],,,6h[16:3],,,{8}7h[8:1],
{4}5>1[4:1],1<5[4:1],5,{8}1,1,
{16}7h[16:3],,,6h[16:3],,,{8}5h[8:1],{16}2h[16:3],,,3h[16:3],,,{8}4h[8:1],
5h[8:1],7b,5/4h[8:1],2b,4/5h[8:1],7b,5/4,6/3,
2b/7b,{16}7<2[4:1],8,,8,{8}7,{4}1,{8}1/8,2/7,
3/6,{16}3>6[4:1],4,,4,{8}3,{4}5,{8}3/6,4/5,
{16}6,5,7,4,8,3,1,2,4,3,5,2,6,1h[16:3],,,6,
4,{8}6h[8:1],{16}3,5,{8}3h[8:1],{16}6,5,{8}6,4/5,3/6,
7b/2b,{16}2>7[4:1],1,,1,{8}2,{4}8,{8}8/1,7/2,
6/3,{16}6<3[4:1],5,,5,{8}6,{4}4-8[12:1],4,
{16}8h[32:1],1,6,5,8,1,5,4,8,1,4,3,8,1h[16:3],,,7,
8,{8}7h[8:1],{16}2,1,{8}2h[8:1],{16}7,1,{8}7h[8:1],{16}2,5h[16:3],,,{4}3-6[16:3],
3,7-2[16:3],7,
3-8[16:3],3,7s3[4:1],7,
4-1[16:3],4,8-5[16:3],8,
4-7[8:1],4>5[2:1],{2}4,
E
