&title=スイートマジック
&artist=ろん×Junky
&first=0
&des=RinA
&cabinet=SD
&clock_count=4
&des_6=RinA
&lv_6=13
&inote_6=(123){4},{8},,,,,,,,,,,,,,5,
6,{16}5,6/5,,6,,5,,6,{8}6/5,5,
4,3,{16}4,4/3,,3,{8}3/4,4/5,{4}6/5,
{8}5,6,{16}5,6/5,,6,,5,,6,{8}6/5,5,
4,3,{16}4,4/3,,3,{8}3-8[8:1]/4-7[8:1],5/2,{4}3/4,
{8}1>4[8:1],8,1/7,{16}6,5,,4,{8}4,3,4,
5<8[8:1],4,5/3,{16}4,3,,2,{8}1,8,2/8,
3/7-3[8:1],2,7/1-4[8:1],{16}1,1,,7,{8}6,5,4,
{16}3,4,,5,,,{8}6,{16}5,4,,4,{8}3,4/2,
5/3h[4:1],7,5h[4:1],1,3h[4:1],7,5h[4:1],1,
3h[4:1],7,5h[8:3],4,{4}4s8[4:1],4,
{8},,4/6h[4:1],2,4h[4:1],8,6h[4:1],2,
4h[4:1],8,6h[4:1],2,4h[4:1],8,6h[4:1],2,
{4}4b,{8}5h[4:1],7,4h[4:1],2,5h[4:1],7,
4h[4:1],2,5,6,{4}6/5>1[4:1],{8}7,6,
{4}5>1[4:1],{16}6,6,,5h[16:3],,,,,{8}4,3,
{4}2>6[4:1],{8}8,{16}7,7h[16:5],,,,,,,,,{4}6b/5b,
{16}6h[16:3],,,5,{8}6,7/4,{16},,6,5,
{8}6,7/3,5/4,2/6,5v8[16:3]/3v8[16:3],4,{4}5/3,
{8},,2/8-4[8:1],6/4-8[8:1],8,2,{16},,1,8,
2,7,,6>3[8:1],,,{8}3,,,{4}2-7[8:1],
,6h[16:3],{8}5,7,{16},,1,8,
{8}1p3[4:1],7,6,5,{4}5h[4:1],{8}4,3,
{4}2h[4:3],{16}5,6,,7h[16:5],,,,,,,{8}2/7,
{4}8-5[4:1]/1-4[4:1],,,5/4,
6<3[4:1],3>6[4:1],6<3[4:1],3>6[4:1],
6<3[4:1],3>6[4:1],{2}6,
{4}2>7[4:1],7<2[4:1],2>7[4:1],7<2[4:1],
2>7[4:1],7<2[4:1],{2}2,
{4}8<3[4:1],3<8[4:1],8<3[4:1],3<8[4:1],
8<3[4:1],3>8[8:1],{8},,,8/7,
1/6,2/5,,1/2,8/3,7/4,,8/1,
7/2,5/4,6/3,1/8-4[8:1],7/2-6[8:1],8,{4}2,
{8}7,1/8,{32}2,3,{16}4,,7/5,,6/4,{32},,3,2,{8}1,8/7,
1/2,3/4,{32}5,6,{16}7,{32},,5,6,{8}7,8b/4b,{4}2b/6b,
3/5-1[8:1],5b/2,{16}2,3/4,,4/5,,,{8}6-3[8:1],
1-4[8:1],6,{4}1b,{16}2,1,,8/4,,,{8}6-3[8:1],
3-6[8:1],6,{4}2b,4,1/7,
{8}4/6,1/3,8/6,5/3,{16}4q5[4:1],4,,5,,,{8}6,
{4}7-3[8:1],7b,{16}4,5/6,,8/7,,,{8}8-5[8:1],
3-6[8:1],8,{4}3b,{16}4,3,,2/6,,,{8}8-5[8:1],
5-8[8:1],8,{4}4b,4,3/1,
{8}6/8,3/5,2/8,7/5,{16}4,3,,2h[16:3],,,{8}5-1[8:29],
{1},,,{4},,{2}2-6[4:1],
{4}5-1[8:1],5b/4,{16}3,2,,1/8,,,{8}6/7,
{4}5-1[8:1],5b/6,{16}7,8,,2/1,,,{8}3/4,
{4}5-1[8:1],5b/6,{2}5-8[8:1],
{4}1>4[4:1],4<7[4:1],7>2[4:1],2>5[4:1],
5-1[8:1],7b,{16}8,7,{8}6,5/7,6-3[8:1],
1-4[8:1],6,{4}1b,{16}2,1,,8/4,,,{8}6-3[8:1],
3-6[8:1],6,{4}2b,4,1/7,
{8}4/6,1/3,8/6,5/3,{16}4q5[4:1],4,,5,,,{8}6,
{4}7-3[8:1],7b,{16}4,5/6,,8/7,,,{8}8-5[8:1],
3-6[8:1],8,{4}3b,{16}4,3,,2/6,,,{8}8-5[8:1],
5-8[8:1],8,{4}4b,4,3/1,
{8}6/8,3/5,2/8,7/5,{16}4,4,,3h[16:3],,,,,{4}5-1[8:1],
{8}3,4,{4}5-2[8:1],{8}7,6,
{4}5-8[8:1],3>7[8:1],{2}7>3[8:1],
{4}5-1[8:1],{8}3,4,{4}5-8[8:1],{8}7,6,
{4}5-2[8:1],5V71[4:1],{2}1V35[4:1],
E
