&title=scualee
&artist=Aoi
&first=0
&des=N
&lv_5=14
&inote_5=(150)
{1},,
{16}54,,,2z6[16:5]/6,,,,,,,,,,,,,
{16}84,,,7V16[16:5]/3V52[16:5],,,,,,,,,,,,,
{16}15,,,6/2z6[16:5],,,,,,,,,,,,,
{16}84,,,3h[16:3]/7h[16:3],,,,,2,5,3,8,4,6,3,5,
{16}1b,,3,4,3,,6,5,6,,2,4,3,,7,5,
{16}6,,1,4,2,,8,5,7,,1,3,2,,8h[8:1],,
{16}6,6,8,8,1,1,3,3,5,5,7,7,{32}1,2,3,4,5,6,7,8,
{16}1/5,,6,5,74,,3,4,2v3[8:1]/5v6[8:1],,,,,,,,
{16}8-4[8:1]/1,,2,,84,,,,2-5[8:1],5,3,4,2,,6,,
{16}7^4[8:1]/4^1[8:1],,,,74,,,,5/8-4[8:1],1,2,3,8V61[16:3]/4,,3,,
{16}2-5[8:1],,,,2,,{24}1,8,7,{16}6,4h[8:1],,{24}8,7,6,{16}5,3,4,
{16}1^4[8:1],7,8,7,1,,,,14,8,7,6,5/8^5[8:1],1,2,3,
{16}4/8b,,,,2h[8:1],,4,,1h[8:1],,5,,8h[8:1],,6,,
{16}7-2[8:1],,2-7[8:1],,74,,,,1h[8:1],,,8h[8:1]/2h[8:1],,,3/7,,
{16}45,,6,5,74,,3,4,25,,1,,3/6-3[8:1],,8,,
{16}36,,1,1h[16:4],,4,,6,2,8,1,8,3,8,1,,
{16}35,,2,4,3,,6,5,7-4[8:1],1,8,2,7,,1,2,
{16}35,,8,7,64,,35,,{24}2,4,2,{16}4,3,6,4,5,,
{16}73,,8,5,6,,3,4,1q5[8:1],7,8,6,1,,8,7,
{16}62,,1,2,37,,{32}8,7,6,5,4z8[8:2],3,2,1,8,7,6,5,4,,,,,,,,
{16}1b,,,,7,8,7,,2,1,2,,7,8,6,,
{16}2,1,3,,7,8,6,,{32}2,3,4,8,7,6,{16}2h[8:1],,8h[8:1],,1,
{16}1h[8:1]/7,,6,,54,,3,,8h[8:1]/2,,3,,45,,6,,
{16}17,,2,43,,7,65,,{32}1,2,3,4,8,7,6,5,{32}2,3,4,5,6,7,8,1,
{1}2bpp5[8:12]/6bpp1[8:12],,
{1}1<1[8:12]/5>5[8:12],,
{8}8V25[8:2]/4
,,6-1[8:1],,6,,,,
{8}8V63[8:2]/4,,2-7[8:1],,2,,5h[8:1],8h[8:1],
{8}6h[8:1],1h[8:1],7h[8:1],2h[8:1],{16}8,3,4,2,6,5,7,3,
{8}4b-1[8:1],,{16},,7h[384:1],7h[384:1],8-4[8:1],6,,2,8h[384:1],,,,
{16}5b-1[8:1]/1h[8:2],,,,5,,2^5[8:1],2,,,8^5[8:1],,,3h[384:1],,,
{16}1,2,4,5,2,3,5,6,2,8,3,7,1,6,2,,
{16}3b-7[8:1]/7h[8:2],,,,3,,6-3[8:1],6,,,8-3[8:1],,,5h[384:1],,,
{16}6,7,5,4,7,8,3,2,1-3[8:1]*z5[8:2],,,,,,,,
{16}3b>6[8:2],,,,3/6<3[8:2],,4,4,,,5,,,6h[384:1],,,
{16}5,7,2,1,4,6,2,1,3^8[8:1],,,4,,,5,,
{16}7b-4[8:1]/6b-1[8:1],,,,67,,,,2,4,3,7,5,6,{24}1,2,3,
{16}4h[8:1]/8h[8:1],,,2h[8:1]/5h[8:1],,,{8}3p1[8:2]/6q8[8:2],,,,,
{1}2qq5[8:6]/7,
{1}6pp1[8:6],
{1}3q6[8:6],
{1}8p1[8:4],
{8}2h[8:4]/8,,7,,6^3[8:1],,1,1,
{8}8h[8:4]/2,,3,,4q1[8:1],,7,7,
{8}25,43,47,56,{32}1,2,3,4,8,7,6,5,{16}3,4,2,5,
{16}1,6,8,7,2,1,3,8,4,7,3,6,2,5,1,4,
{16}8v6[8:1]*p4[8:1],,,,8,,,,{24}3,2,1,8,7,6,3,2,1,8,7,6,
{16}1b^4[8:1]/5b,,,7,1,,8,7,6/2^5[8:1],,,8,2,,1,8,
{16}73,,2,4,3^6[8:1],,7^2[8:1],,3v8[8:1],,7,,3,,6,,
{16}4b^7[8:1]/1b,,,2,4,,3,2,1/5^8[8:1],,,3,5,,4,3,
{16}26,,5,8,7-3[8:1],,3>5[16:4],,7,,,,4-8[8:1],3,2,1,
{16}8<3[16:5]/4pp1[16:5],,,,,,,,,,,,2^7[8:1],4,3,,
{16}2/5pp8[16:5]*qq2[16:5],,,,,,,,,,,,1^4[8:1],7,8,,
{24}16,,,5,6,7,8b/3b,,,5,6,7,8b/4b,,,6,7,8,1b/5b,,,84,73,26,
{16}1b-5[16:1]/5b,,,4b-7[16:1],,,2b-6[16:1],,,,,,
{32}8,1,2,3,4,5,6,7,
{2}8v7[8:1]/1v2[8:1],{32}7b/8h[32:3],6xc,5,4,,,2b/1h[32:3],3,4,5,,,/7b,6,5,4,
{32}1b,2,3,4,,,2b/8b,73,64,5,,,8b,1/7,2p8[16:5]/6p4[16:5],3/5,{2}4,
{16},,,,8-4[8:1]/4,15,2h[8:1]/6,,8,,,,1-5[8:1]/5,26,3h[8:1]/7,,
{16}1,,,,2-7[8:1]/6-3[8:1],37,48,,2>8[8:2]/6,,,,,,,,
{16}5V38[8:2],,,,7v4[8:1],,,,7,,,,16,,25,,
{16}4V61[8:2]/3,,,,2v5[8:1],,,,2,,,,8,7,6,5,
{16}2,4,3,4,1,5,4,5,8,6,5,6,1,7,2,5<4[16:9],
{1}4>5[16:8],
{16}35,,2,4,3,,6,5,7^4[8:1]/4,,8,,7/3q4[8:2],,1,,
{16}35,,,,6,,38,,{24}2,1,2,{16}1,3,8,2,5,,
{16}46,,7,5,6,,3,4,2-5[8:1]/5,,1,,2/6v1[8:1],,7,,
{16}63,,2,3,48,,{32}4,3,2,1,8-4[8:1],7,6,5,4,3,2,1,{16}8w4[8:1],,,,
{16}8b,,,,2,1,2,,7,8,7,,2,1,3,,
{16}7,8,6,,2,1,3,,{32}7,6,5,1,2,3,{16}7h[8:1],,1h[8:1],,4,
{16}1/4h[8:1],,2,,6h[8:1]/3,,4,,8/5h[8:1],,7,,3h[8:1]/6,,5,,
{16}14,,6,75,,3,24,,{32}2,3,4,5,8,7,6,5,1-5[12:1],2,3,4,7,6,5,4,1b,
