&title=桃源郷コンダクター
&artist=DEN-ON-BU,前田甘露,浅田大貴,日高零奈 (CV: 蔀 祐佳)、東雲和音 (CV: 天音みほ)、茅野ふたば (CV: 堀越せな)
&first=0.02
&des=12f
&lv_5=13
&inote_5=(153)
{8},,,,,,,,
{8}Cf/B6/B3/E4/A3/E6/A6/B4/B5/E5,,,,,,,,
{8},,,,,,,,
{16}6,5,7,5,6h[8:2],,,,4,5,3,6,4h[8:2],,,,
{8}5,E3/E2/B2,5,E4/E5/B4,6-1[8:1],,,,
{16}3,4,2,4,3h[8:2],,,,5,4,6,3,7h[8:2],,,,
{8}4,E7/E8/B7,4,E6/E5/B5,3x-8[8:1]/4x-7[8:1],,,,
{8}6-8[12:1],,1b,,6-1[12:1],,2b,,6-2[12:1]/4,,1b,,4-6-8[16:2],1b,1b,,
{8}3-1[12:1],,8b,,3-8[12:1],,7b,,3-7[12:1]/5,,8b,,5-3-1[16:2],8b,8b,,
{8}7-5[12:1],,4b,,7-4[12:1],,3b,,7-3[12:1]/1,,4b,,1-7-5[16:2],4b,4b,,
{8}2-4[12:1],,5b,,2-5[12:1],,6b,,2-6[12:1]/8,2,5-7-1[8:1],5,,2b,2b,,
{8}7-2[12:1]/3-6[12:1],,,,8-6[12:1]/1-3[12:1],,,,
{8}4-1[8:1]/2-7[8:1],,2q6[8:1],,2,,8,,1-5[12:1],5qq6[12:3],1,,7,,7-4[12:1],,
{8}8,,2-5[12:1],,1,,{48}B8,B1,B2,B3,B4,B5,B6,B7,,,,,
{8}2,1,7/4,7,5/6h[8:2],,8,,
{16}2,1,3h[8:1],,4,3,5,,4h[8:2]/6,,,,1,,,,
{8}8-4b[12:1],4pp3[12:3],8,,2,1,2-5[8:1],,
{8}1,,7-4[12:1],,8,2b,2b,,
{16}7/5,,,1/3,,,7/5,,Ch[8:2]/E4,,,,,,,,
{16}2/4,,,8/6,,,2/4,,Ch[8:2]/E2,,,,,,,,
{16}3/1,,,5/7,,,3/1,,Ch[8:2]/E8,,,,,,,,
{8}8/6,,4/5,,1<6[12:1]/2>5[12:1],,1/2,,
{8}5-8[8:1]/4,,2,,4-1[8:1],,6,,7,1,6,2,5-8[12:1]/4-1[12:1],,5b/4b,,
{8}7<4[12:1]/1,,7b/3b,,2-6[12:1]/8,,2b/6bS,,
{8}7b/8b,1b,4b/3b,5b,Ch[8:2],,,,
{8}D2/D8/E1/A1/A8/A7/A2/E7/E3/B6/B3/B5/B4/E5,,6/4q8[8:1],,4/2,1,1-5[12:1],,{16}5,,,6,6-1[12:1],,,2-5[16:2],2>1[16:3],,,,,,,,
{16}4,,5,,7/3,,,2,2-5[12:1],,7,,8-4[12:1],,1,,8/2-6[12:1],,,,7>5[16:3]/2,,,,,,,,Cf,,,,
{32}E1,E8,E7,,,E3,E4,E5,,,,1xp5[8:1],,,,,,,,,{8}4,4-8[12:1],,{16}8,,,7,7-4[12:1],,,3-8[16:2],3>4[16:3],,,,,,,,
{16}1,,8,,6/2,,,3,3-8[12:1],,7,,6-2[12:1],,5,,6/1-5[12:1],,,,6-8-2-4[16:3]/1,,,,,,,,Cf,,,,
{8}1/2,1/2,8/3,8/3,{24}7/1w5[12:1],6,5,4,3,2,{8},,
{8}4/5,4/5,{8}3>6[12:2],7,6<3[12:2],,5,,
{8}8/7,8/7,1/6,1/6,{24}2/8-4[12:1],3,4,5,6,7,{8},,
{8}1b/5b,2b/6b,3bv2[12:1]/7bv6[12:1],8/4,Cf,,1b/5b,,
{16}6,5,7,5,6h[8:2],,,,4,5,3,6,4h[8:2],,,,
{8}5pp4p2[12:7],,,,,,,,
{16}3,4,2,4,3h[8:2],,,,5,4,6,3,7h[8:2],,,,
{8}8qq1qq4[12:7],,,,,,,,
{16}6,5,7,5,6h[8:2],,,,3,4,2,4,3h[8:2],,,,
{8}7-5-8-4-1[12:7],,,,,,,,
{16}2,1,3,8,2h[8:2],,,,8,1,7,2,6h[8:2],,,,
{8}5,5-3[12:1],,5-7[12:1],,5,8b-4b[12:1],,
{8}A8f/1,,{24}1x,2x,3x,8,,,2x,3x,4x,1,,,3x,4x,5x,2,,,3x,4x,5x,6x,7x,8x,1x/2xV46[8:1],,,,,,7x/2x,8x,1x,2x,3x,4x,5x/1xs5[6:1],,,,,,
{8},,,,7h[8:1],5h[8:1],4h[8:1],2h[8:1],
{16}8,5,7,4,6,,1,8,2,5,3,6,4h[8:1]/7-3[12:1],,,,
{8}7b,,{12}2,1,8,8h[12:2],,,3,4,5,5h[12:2],,,1,8,7,7h[12:2],,,4,5,6,
{8}6h[12:3],,8-5[8:1],5-8[8:1],8-4[8:1],,,,
{8}6/5,6/5,3/4,3/4,7-4[8:1]/2-5[8:1],,7/2,,
{16}7/5,,,1/3,,,7/5,,Ch[8:2]/E4,,,,,,,,
{16}2/4,,,8/6,,,2/4,,Ch[8:2]/E2,,,,,,,,
{16}3/1,,,5/7,,,3/1,,Ch[8:2]/E8,,,,,,,,
{16}6/8,,,4/2,,,6/8,,Ch[8:2]/E2,,,,,,,,
{8}5-8[8:1]/4,,2,,4-1[8:1],,6,,7,1,6,2,5-8[12:1]/4-1[12:1],,5b/4b,,
{8}7<4[12:1]/1,,7b/3b,,2-6[12:1]/8,,2b/6bS,,
{8}7b/8b,1b,4b/3b,5b,Ch[8:2],,,,
{8}7b/1b,2b,5b/3b,6b,Ch[8:4],,,,
{8}D2/D8/E1/A1/A8/A7/A2,,E7/E3/B6/B3/B5/B4/E5/Cf,,8/1,2,1q5[12:1]/8,7,{16}1/8p4[12:1],,,3,3-8[12:1],,,7-4[16:2],7<8[16:3],,,,,,,,
{16}5,,4,,2/6,,,7,7-4[12:1],,2,,1-5[12:1],,8,,1/7-3[12:1],,,,2<4[16:3]/7,,,,,,,,Cf,,,,
{32}E1,E2,E3,,,E7,E6,E5,,,,8xq4[8:1],,,,,,,,,{8}5,5-1[12:1],,{16}1,,,2,2-5[12:1],,,6-1[16:2],6<5[16:3],,,,,,,,
{16}8,,1,,3/7,,,6,6-1[12:1],,2,,3-7[12:1],,4,,3/8-4[12:1],,,,3-1-7-5[16:3]/8,,,,,,,,Cf,,,,
{8}8/7,8/7,1/6,1/6,{24}2/8w4[12:1],3,4,5,6,7,{8},,
{8}5/4,5/4,{8}6<3[12:2],2,3>6[12:2],,4,,
{8}1/2,1/2,8/3,8/3,{24}7/1-5[12:1],6,5,4,3,2,{8},,
{8}8b/4b,7b/3b,6bv7[12:1]/2bv3[12:1],1/5,Cf,,8b/4b,,
{8}7-4[12:1]/2-5[12:1],,2pp8[8:2]/7qq1[8:2],,,,E1f,,
{16}7-4[12:1],,,8,7^2[8:1],,2>5[8:1],,5<8[8:1],,,,1x,,,,
{16}2,4,3,6,5,7,1,8,3,5,4,6,2^5[8:1],,,,
{16}7-4[12:1]/2,,,8,7^2[8:1],,2>5[8:1],,5<8[8:1],,,,1x,,,,
{16}2,4,3,6,4h[8:1],,8,,7,4,6,3,5-1[8:1],,5,,
{16}2-5[12:1],,,1,2^7[8:1],,7<4[8:1],,4>1[8:1],,,,8x,,,,
{16}7,5,6,3,4,2,8,1,6,4,5,3,7^4[8:1],,,,
{16}2-5[12:1]/7,,,1,2^7[8:1],,7<4[8:1],,4>1[8:1],,,,8x,,,,
{16}7,,4,5,2>7[16:3],,1,,2,,8b,,8b/Cf,,
