&title=紋
&artist=喜多村英梨
&first=0
&des=C3
&lv_5=13+
&inote_5=(132){4},,,,
(66){4}
5xpp4[8:4],,4x>7[8:3],,
3xqq4[8:4],,4xq2[8:2],,
5xpp4[16:7],3x>8[16:3],3xp7[8:2],,
3xqq4[16:7],5x<8[16:3],5xs1[8:2],,
5xpp4[8:4],4xqq4[8:2],4xw8[8:3],,
,
(150){4}
26,
(160){16}
7xh[16:3],,,5h[16:3],,,4^7[16:3],,,,3,,3,,2,,18,,,6,5,,4/7p3[16:3],,,,8,,1,,2,,
3/4h[16:3],,,5h[16:3],,,7^2[16:3],,,,4,,4,,3,,12,,,4,5,,71,,A2,E3,E4,A4,A7,E8,E1,A1,
2xh[16:3],,,4h[16:3],,,5^2[16:3],,,,6,,6,,7,,81,,,3,4,,5/2q6[16:3],,,,1,,8,,7,,
6/5h[16:3],,,4h[16:3],,,2^7[16:3],,,,5,,5,,6,,87,,,5,4,,28,,A7,E7,E6,A5,A2,E2,E1,A8,
4x-8[8:1],,5,,6,,7,7^4[6:1],,,1,,2,,3,,4>1[8:1],,5,,6,,7,7,1-5[8:1],8,2,,13,,4,,
6,,7,,28,,3-6[8:1],1,,1,3,,8,,7,,5-1[8:1],,5,,8,,8,,2,3,4,5,1,2,3,4,
5x-1[8:1],,,,3,,2,2^5[6:1],,,8,,7,,6,,5<8[8:1],,4,,3,,2,2,8-4[8:1],1,7,,86,,5,,
3hb[4:1],,5x,6x,7x,,1hb[4:1]/4hb[4:1],,,,,,{24}3bx/7bx,2x/6x,1x/5x,8x/4x,,,{16}
1bx,5,1,5,2,6,2,6,3,7,3,7,{32}4x,5x,6x,7x,8x,1x,2x,3x,{16}
4x/7h[16:3],,,6,,,8^5[16:3]/5,,,,4,,4,,3,,2,,2,1,,1,4-2[8:1],,8,,7-5[8:1],,6,,,,
2h[16:3],,,3,,,1^4[16:3]/4,,,,5,,5,,6,,7,,7,8,,8,6,,7b/1b,,8,2,8-5[8:1],2,8,2,
8-4[8:1],,,,86,,5,5,3-7[8:1],4,2,,1-4[8:1],,,,
8/1-5[8:1],,,,13,,4,4,6-2[8:1],5,7,,8w4[8:1],,,,
8b,,,,26,,26,,37,,37,,48,,48,,
1b/3b,,{24}5,4,5,{16},,6b/8b,,{24}4,5,4,{16},,3b/7b,,1b/5b,,
,,A7/A6/D7/E8/E7f/E6/B7/B6,,A2/A3/D3/E2/E3f/E4/B2/B3,,,,,,6,,7-3b[8:1]/5-1b[8:1],,,,
5b/7b,,,,24,,6,5,7-4[8:1],,8v3[8:1],,7,,8<4b[8:1],,,,8/4,,3,,1q6[8:1]/2v5[8:1],,,,1b/2b,,,,7,8,
6h[8:1],,2,1,3h[8:1],,6,8,5h[8:1],,3,1,4,,7V51[8:2]/5,,,,7/4,,3,,2w6b[8:1],,,,2b,,,,4,,
12,,3,,12,,3,,45,,6,,45,,6,,78,,1,,78,,1,,24,,56,,7/8>6[16:3],,1,,
8b/3b,,,,1,,1,,28,,53,,74,,5-2[8:1]/1-6[8:1],,,,5/1,,,,B1/B8/B7/B6f/B5/B4/B3,,,,,,,,8,8,
7b/1b,,,,56,,3,4,2-5[8:1],,1v6[8:1],,2,,1>5b[8:1],,,,1/5,,6,,8p3[8:1]/7v4[8:1],,,,8b/7b,,,,2,5,
1h[8:1],,7,4,8h[8:1],,2,4,1h[8:1],,7,5,8,,2V48[8:2]/1,,,,2/5,,6,,7w3b[8:1],,,,7b,,,,5,,
71,,6,,71,,5,,24,,1,,24,,8,,57,,4,,57,,3,,28,,67,,5/4>6[16:3],,3,,
1b/4b,,,,5,,5,,46,,46,,37,,3h[48:16]/7h[48:16],,,,,,{48}2bx/6bx,1bx/5bx,8bx/4bx,{16}7bx/3bx,,,1,4,3,8,5,6,1,4,
2hb[4:1],,{32}1,8,7,6,{16},,1bh[4:1]/4b,,,,4,2,5,3,6,4,
7hb[4:1],,{32}8,1,2,3,{16},,8bh[4:1]/5b,,,,5,7,4,6,3,5,
2,4,3,3,8,1,7,7,5,6,4,4,1h[8:1],,,,
2b/8b,,{32}2b/8b,3,4,5,{16},,1b/7b,,{32}1b/7b,6,5,4,{16},,8b-5q1b[16:12]/3b<8b[16:12],,D1/A1/E2f/A2/E3/B3,,
,,,,,,,,,,,,,,,,
E
