&title=「ResoNAnce」
&artist=あらき
&first=-0.46
&des=GAHOU
&lv_5=14
&inote_5=(180)
{8},,,,,,2,2qq5[8:4],
{8},,6,6,,8h[4:1],,,
{32}8b/4b,7/3,6/2,5<4[32:21]/1,{8},,,4,,4,,
{8}5h[4:1],,6,7h[4:1]/5,,3,4-1[8:1]/2,,
{8}3h[4:1]/4,,,4>5[8:4]/6,,,,,
{8}4h[4:1],,,4/2-6[8:1],,8h[4:1],,5,
{16}6b,4,6,4,6,4,5b,3,5,3,5,3,4b,2,4,2,
{12}8,1,7,4,5,3,6,5,7,2,1,3,
{4}8-5[8:11]/4,4,{8}4,,4,,
{8}4,,4,,4,,4,5,
{4}4b<1[8:11]/2,2,2,2,
{8}2,,2,,2,,2,1,
{8}8h[4:1]/3-5[12:1],,,,7/5-2[8:1],,7,7-4[8:1],
{8},1<6[8:1],,7h[4:1],,5,7/4,3,
{8}4<7[8:1]/2,,3,4,5>2[8:1]/8,,7,6,
{8}5-2[8:1],4/2V47[4:1],,,8-4[8:1],,2,,
{8}1h[4:1]/6-4[12:1],,,,2/4-7[8:1],,2,2-5[8:1],
{8},8>3[8:1],,2h[4:1],,4,2/5,6,
{8}5>2[8:1]/7,,6,5,4<7[8:1]/1,,2,3,
{8}8q4[8:1],4q8[8:1],,,3h[128:1],2h[128:1]/4h[128:1],5h[128:1]/3h[128:1],6h[128:1]/4h[128:1],
{16}7h[16:3],,,8,6,,1/5,,2h[16:3],,,1,3,,8/4,,
{16}6,,5/3,,4,2h[8:1],,4,2h[8:1],,5,,1,2,3,4,
{16}8h[16:3],,,5,6,,7/4,,6,,5/3,,2,4h[8:1],,2,
{16}4h[8:1],,1h[8:1],,8,1h[8:1],,7,2,3,4,5,3,4,5,6,
{16}7/2h[16:3],,,1,3,,8/4,,7h[16:3],,,8,6,,1/5,,
{16}3,,4/6,,5,7h[8:1],,5,7h[8:1],,4,,8,7,6,5,
{16}1h[16:3],,,4,3,,2/5,,3,,4/6,,7,5h[8:1],,7,
{16}5h[8:1],,8,1,8,1,8,1,8,,2,7,2-6[8:1],,3/5,,
{8}7/2,,7/5-3[8:1],4,7,,7-5[8:1],6,
{8}2,,2,4-6[8:1],2,4,2-4[8:1],,
{8}8/2,,8,5>2[8:1],8,5,8<5[8:1],7,
{8}1,,1,4V61[16:3],1,4,2,,
{16}3h[16:3]/1b,,,4,2,,5/6,,7,,8/1,,2,,8/3,,
{16}6h[16:3]/5b,,,8,7,,6/1,,5,,4/3,,1/8,,6/2,,
{16}5b,,3,4,,5,4,,7,5,,4,6,,7/5,,
{16}1,8,1,8,1,8,1,8,1,8,1,8,7/2,,,,
{32}8b/2bV47[4:1],3,4,5,,,,,{8}2,1V36[4:1],,1/6,7,8,
{16}7/1,,2,6,3-1[8:1],,8/2,,7-3[8:1],,6,,4>1[8:1],,5,,
{32}7bV52[4:1],6,5,4,,,,,{8}7,8V63[4:1],,8/3,2,1,
{16}2/8,,7,3,6-8[8:1],,1/7,,2v5[8:1],,3,,6<1[8:1],,7,,
{32}2bp6[8:1]*pp4[8:1],3,4,5,,,,,{8}2,,8/4,7/3,6/2,5/1pp8[16:5],
{8},,6,5pp4[16:5],,5,,{32}3b<1[4:1],2,1,8,
{8},2h[4:1],,,,2/4,5/3,6/4,
{16}7<4[8:1]/5,,,8,7,,1,,2>5[8:1]/4,,,1,2,,8,,
{8}7-5[8:1]/5-1[8:1],,7/5,,{16}2h[16:3],,,4h[16:3],,,5h[8:1],,
{8}7b-3[8:1],,2,1,8b-4[8:1]/4b,,5,6,
{8}7bp3[8:1]/5b-2[8:1],,,,{16}1h[16:3],,,8h[16:3],,,7,,
{8}7b/2b-6[8:1],,7,8,1b-5[8:1]/5b,,4,3,
{8}4b<7[8:1]/2bq6[8:1],,,,{4}8-3[8:1],2-5[8:1]/8,
{4}6-1[8:1]/2,3-6[8:1]/6,3/7v4[8:1]*>2[8:1],7,
{8}1-5[8:1],1,6-2[8:1],6,4-1[8:1],4,8,8,
{16}2,7,2,7,3,6,3,6,4,5,4,5,7/2,,,,
{32}1b/7bV52[4:1],6,5,4,,,,,{8}7,8V63[4:1],,8/3,2,1,
{16}2/8,,7,3,6-8[8:1],,1/7,,2-5[8:1],,3,,6<1[8:1],,7,,
{32}2bV47[4:1],3,4,5,,,,,{8}2,1V36[4:1],,1/6,7,8,
{16}7/1,,2,6,3-5[8:1],,8/2,,6-2[8:1],,7,,4>1[8:1],,5,,
{32}8bw4[8:1],7,6,5,,,,,{8}8,,1/5,2/6,3/7,4/8qq1[16:5],
{8},,3,4qq5[16:5],,4,,{32}6bV42[16:3]*>8[16:5],7,8,1,
{8},6b,,,,7/5,4/6,3/5,
{16}2V48[16:3]/4,,,1,2,,6,,7V51[16:3],,,5,7,,2,,
{8}3pp8[8:3],,,{16}6,,6-2[8:1],,,,3,,4,,
{8}5b-1[8:1]/1b,,8,7,6b-2[8:1]/2b,,3,4,
{8}1b>6[4:1]/5b,,,8,{16}1h[16:3],,,2h[16:3],,,3,,
{8}7b/3b-7[8:1],,6,5,4b-8[8:1]/8b,,1,2,
{16}3,7,3,7,4,6,4,6,1,8,1,8,2,7,2,7,
{16}3,5,3,5,1,7,1,7,2,6,2,6,2-6[8:1],,,,
{1}5<4[1:1]/2qq5[1:1],
