&title=ツギハギエデン
&artist=sasakure.UK
&first=0
&des=KuSA
&lv_5=13
&inote_5=(137)
{1},{64},
{8}
3h[8:1],,,,5h[8:1],,,,
4h[8:1],,,,6h[8:1],,,,
3h[8:1],,,,5h[8:1],,,,
4h[8:1],,,,6h[8:1],,,,
3h[8:1]/4,,1,,5h[8:1]/6,,8,,
4h[8:1]/3,,1,,6h[8:1]/5,,8,,
3h[8:1]/4h[8:1],,1/8,,6h[8:1]/5h[8:1],,81,,
3<6[4:1],,6<3[8:3]*q3[8:3],,,,,,
{24}
6,,6,5,,5,4,,4,3,,3,1-5[8:1],,,2,,,,,,,,,
4,,4,5,,5,6,,6,7,,7,1-5[8:1],,,8,,,,,,,,,
7,,7,6,,6,5,,5,4,,4,2-7[8:1],,,3-6[8:1],,,,,,,,,
{8}
8,6,4-8[8:1],2,8-4[8:1],,,,
{24}
3,,3,4,,4,5,,5,6,,6,8>3[8:1],,,7,,,8,,,,,,
5,,5,4,,4,3,,3,2,,2,8<5[8:1],,,1,,,8,,,,,,
2,,2,3,,3,4,,4,5,,5,7-3[8:1],,,6,,,7,,,,,,
8b-4[2:1]/4b-8[2:1],,,,,,,,,,,,,,,,,,,,,,,,
5h[4:3]/4h[4:1],,,,,,,,,,,,6h[4:3],,,,,,,,,,,,
3h[4:3],,,,,,,,,,,,7h[4:3],,,,,,,,,,,,
2h[4:3],,,,,,,,,,,,8h[4:2],,,,,,,,,,,,
1>8[2:1],,,,,,,,,,,,,,,,,,,,,,,,
{8}
2h[4:1],,4-1[4:1],,5h[4:1],,,,
7h[4:1],,5-8[4:1],,4h[4:1],,,,
2h[4:1],,4qq4[8:3],,5h[4:1],,,,
7h[4:1],,5-8[4:1]*-1[4:1],,,,,,
2/4-1[8:1],,45,,7/5-8[8:1],,4/5,,
2/4-1[8:1],,4/5-8[8:1],,5/7>2[8:1],,,,
3/1-4[8:1],,1/8,,6/8-5[8:1],,1/8,,
3<6[8:1],,6>2[4:1]*p2[4:1],,,,,5,
6<1[8:1],,4,5h[4:1],,1,8,4,
3>8[8:1],,5,4h[4:1],,8,1,5,
6-2[8:1],,3-7[8:1],,8,8,,3,
5-1[8:1]/4-8[8:1],,5v3[16:3]/4v6[16:3],,,,,1,
2h[8:1]/4h[8:1],,1h[8:1]/3h[8:1],,2>5[8:1]/8,8,,,
7h[8:1]/5h[8:1],,8h[8:1]/6h[8:1],,7<4[8:1]/1,1,,,
2h[8:1]/4h[8:1],,1h[8:1]/3h[8:1],,2>5[8:1]/8-4[8:1],8/2,,,
3/6,2/7,8-4[8:1],1-5[8:1],8,1,,,
8b/1b>8[4:14],,,,{8}8-4[8:1],,,,7-3[8:1],,,,6-2[8:1],,,,
5-1[8:1],,,,3-7[8:1],,,,2-6[8:1],,,,1h[4:1],,,,
8h[16:2]/1b>8[4:10],,7h[16:2],,6h[16:2],,5h[16:2],,
4h[16:2],,3h[16:2],,2h[16:2],,1h[16:2],,7h[8:1],,5h[8:1],,3h[8:1],,
1h[8:1],,7bV51[2:1]/2bV48[2:1],,,,,,,{64},,,,,,,
{8}2/1h[4:1],,3h[4:1],,5h[4:1],,7,,
7/8h[4:1],,2h[4:1],,4h[4:1],,6,,
6/7h[4:1],,1h[4:1],,3h[4:1],,5h[4:1],,
7h[4:1],,1q4[8:3],,,,,,
1>1[2:1],,5,,1>1[2:1],,5,,1>1[2:1],,5,,1>1[2:1],,5,,
1>5[4:1],,5<1[4:1],,1>5[4:1],,5<1[4:1],,
1>4[6:1],3<6[6:1],5<8[6:1],7>2[6:1],1>4[6:1],3<6[6:1],5<8[6:1],7,
{1}1bv6[4:5]*>1[4:7],,
{8}3,3h[8:3],,,4,4h[8:3],,,5,5h[8:3],,,8z4[4:1],,,,
3-1[8:1],3h[8:1],,,6-8[8:1],6h[8:1],,,
3-8[8:1],3h[8:1],,,7-4[8:1],7h[8:1],,,
1>4[8:1],1h[8:1],,,5<8[8:1],5h[8:1],,,
2s6[2:1]/6z2[2:1],,,,,,,,
{16}
3b/5b>2[8:1],,6,,7,,6,,1<6[8:1]/5,,
2,,3,,2,,5>2[8:1]/1,,6,,7,,
6,,5<8[8:1]/1>4[8:1],,15,,,,,,
3h[4:1],,1,,4h[4:1],,1,,5h[4:1],,8,,6h[4:1],,8,,5,,
3,,1-5[8:1],,7,,5-1[8:1],,6,,8,,,,
7/3<6[8:1],,2,,1,,2,,7>2[8:1]/3,,
6,,5,,6,,7/3<6[8:1],,2,,1,,2,,3<6[8:1]/7>2[8:1],,
37,,,,,,3/4,,1,,3/5,,1,,6/4,,8,,5/6,,8,,
54,,3,,1-5[8:1],,7,,5-1[8:1],,6,,8<4[8:1]*>4[8:1],,,,
8b,,,,2/6,,
{16}
5,4,6h[8:1],,8,7,1h[8:1],,3,2,
4h[8:3],,5,,6,,7,,4^7[8:1]/8^3[8:1],,4/8,,,,,,
5h[8:1]/3,,1,,4h[8:1]/5,,1,,5h[8:1]/4,,8,,6/4h[8:1],,8,,
56,,3,,1-5[8:1],,7,,5-1[8:1],,6,,8,,,,
6/2,,7,8,6h[8:1],,4,5,3h[8:1],,1,2,8h[8:1],,6,7,
5h[8:3],,4,,3,,2,,5V31[8:1]/1V75[8:1],,5/1,,,,,,
34,,1/2,,3/5,,2/8,,4/6,,71,,56,,78,,
5/6,,34,,1-5[8:1]/2,,7,,5b-1[8:1],,6b,,8b,,,,
{24}
7,,7,5,,5,4,,4,2,,2,3-6[8:1],,,5,,,3/7,,,,,,
7,,7,5,,5,4,,4,2,,2,3-6[8:1],,,1,,,3/8,,,,,,
2,,2,4,,4,5,,5,7,,7,6-3[8:1],,,4,,,6-8[8:1]/2,,,,,,
6-4[8:1],,,2,,2,6<8[8:1],,,3,,3,6qq4[8:1],,,4q1[6:1]*<8[6:1],,4,
6b,,,,,,,,,,,,,,,,,,
6h[8:3]/4h[8:3],,,,,,,,,,,,46,,,,,,,,,,,,
2h[8:3]/4h[8:3],,,,,,,,,,,,4/2-4[8:1],,,,,,
6,,,7,,,{8}
8h[8:3]/4h[8:3],,,,8-4[8:1]/4,,4,3,2h[8:3]/6h[8:3],,,,2/6,,1,2,
3h[8:3],4h[8:2],,,45,,8,7,6h[8:3],5h[8:2],,,81,2,3<6[8:1],6,7,8h[4:1],,,
81,7,6>3[8:1],3<6[8:1],2b,1b,,
