&title=十五の月
&artist=本渡楓
&first=0.69
&des=bbben VS. 霊風
&lv_5=12
&inote_1=(91)
{4}
1,1,1,1,1,1,1,1,1,1,1,1,1,1,1,1,1,1,1,1,1,1,1,1,1,1,1,1,1,1,1,1,1,1,1,1,1,1,1,1,1,1,1,1,1,1,1,1,1,1,1,1,1,1,1,1,1,1,1,1,1,1,1,1,1,1,1,1,1,1,1,1,1,1,1,1,1,1,1,1,1,1,1,1,1,1,1,1,1,1,1,1,1,1,1,1,1,1,1,1,1,1,1,1,1,1,1,1,1,1,1,1,1,1,1,1,1,1,1,1,1,1,1,1,1,1,1,1,1,1,1,1,1,1,1,1,1,1,1,1,1,1,1,1,1,1,1,1,1,1,1,1,1,1,1,1,1,1,1,1,
&inote_5=(91)
{4},,,
{8}
4,3,2h[4:2],,5,6,7h[4:1],,
8>6[4:1],,6p1[4:1],,7,7,7,,
1,2,3h[4:3],,2,1,8,7,
6,5,4>5[8:3],,7bh[8:3],,,,
4,3,2h[4:2],,5,6,7h[4:1],,
2pp6[4:2],,2,{16}8,8,
{8}8,1,1,,
5,6,7,8,1-3[8:1]*-7[8:1],,1w5[8:1],{16},1,
{8}
1b,,4>1[8:1],3,4pp6[8:1],,4qq1[4:1],3,
1>6[4:1],,6xqq3[4:1],,3x<2[4:1],,7h[4:1],,,
2,1<6[8:1],8,1pp3[8:1],,1qq6[4:1],8,
6<3[4:1],,3q4[4:1],,,,
{16}
8,7,6,5,1,2,3,4,
{8}
5<8[8:1],6,5qq3[8:1],,5pp8[4:1],6,
8<3[4:1],,3xpp6[4:1],,6x>7[4:1],,2h[4:1],,,
2,8>3[8:1],1,8<5[8:1],,8>3[8:1],1,
5w1[8:1],,5b<4[4:1]*>6[4:1]`Cf,,,,
,,5,6,7-5[8:1],4,37,4,4>2[8:1],3,45,,
4-7-2-5[8:3],,D1,A7,A2,,36,1,
2-4[8:1],5,62,5,5<7[8:1],6,54,,
2v4[8:1],4p8[8:1],8<2[4:1],,Cf,,5h[8:2],
{16}4,4,{8}4,,1h[8:2],
{16}8,8,{8}8,,
1-4[8:1],,1-6[8:1],,1-5[8:1],,,,46,,
5>3[8:1]/6,,2,,4<6[8:1]/3,,7,,2qq5[4:1]/7pp4[4:1],
,,,,
||cha
ru
4,3/5,2/6,
1h[4:1]/7<1[2:1],,,,1pp8[2:1],,3,,
4q5[4:1],,,,,,7h[8:1],,
6h[4:1]/3pp6[2:1],,,,6>2[4:1],8,2qq2[2:1],8,6h[16:3],,6qq4[8:1],,6pp8[8:1],,,{16}2,2,
{8}3bx>7q3b[2:1]/7bx<3q7[2:1],,,,,,,{16}7,7,{8}6bxp8q5[2:1]/4bx>8q5b[2:1],,,,,,,4,8bx>4[8:1],4xq8[8:1],8xq4<8[4:1],3x,2x,1x,1hx[8:1],,3b/4b,5b/6b,8bw4b[8:1]/7b,1b/2b,8b,,
{8}2>5[8:1]/6,,{64}6p1[8:1]/2x,7x,8x,1x,{16},,,
{8}2>5[8:1]/6,,{64}6p1[8:1]/2x,7x,8x,1x,{16},,,
{8}2/6,,1>6[8:1]b,6p1[8:1]b,,,6<3[8:1],3>6[8:1],,,
3xqq4[4:1],,,,6p5[4:1],,5>6[4:2],,Cf,,,,,,
{8}7<4[8:1]/3,,{64}3q8[8:1]/7x,2x,1x,8x,{16},,,
{8}7<4[8:1]/3,,{64}3q8[8:1]/7x,2x,1x,8x,{16},,,
{8}7/3,,6V41b[8:1],2V85b[8:1],,,3>6[8:1],6<3[8:1],,,
6xpp5[4:1],,,,3q4[4:1],,4<3[4:4],,Cf,,,,,,
