&title=溟海のzodiac
&artist=TAKIO
&first=0
&des=star night
&des_5=
&lv_5=14
&inote_5=(190){4},{8},,,,,,,,,,,3,
4,5,
{1}6h[1:1],
5h[1:1],
4h[1:1],
3h[1:1],
8b<5[2:1],
1b>4[2:1],
{8}4/6h[4:1],,,5/3h[4:1],,,{4}5/7b>4[1:2],
{16},,,,,,,,,,,,,,7,6,
{1}5,
{8},,,,6,5,4,3,
{4}2b-4[8:1],{8}7,6-8[8:1],,1,{4}1h[4:1],
{8},8,2,2,7,6,5,4,
{4}3-1[8:1],{8}8,7-5[8:1],,4,{4}4h[2:1],
,3<6[8:1],3,{8}2,{16}2,3,
{4}4h[4:1],{8}7b,{16}6,5,6,5,{8}6<1[8:1],,6,
{16},,2,1,2,1,{8}2h[8:1],8h[8:1],4-6[8:1],,4,
{3}7h[4:1],{12}5,6,{16}4,5,{8}3h[16:5],{16},,,1h[8:1],
,,{8}2h[8:1]/8h[8:1],{16},7h[8:1]/3h[8:1],,,{8}6,5,4,3,
{4}2b-4[8:1],{8}7,6-8[8:1],,1,{4}1h[4:1],
{8},8,2,2,7,6,5,4,
{4}3-1[8:1],{8}8,7-5[8:1],,4,{4}4h[2:1],
,3<6[8:1],3,{8}2,{16}2,3,
{4}4-8[8:1],4b,{16}7,1,6,2,{8}5,{16}3,4,
2h[8:1],,,4,{8}3qq7[8:3],5/2,{2}3,
{16}6,8,6,8,{8}6h[8:1],1,{16}2,5,{8}3-7[8:1],7>5[8:3],3,
{16},,,,,,,,6,5,6,5,7,4,7,4,
{8}8b,8-3[8:1],5h[8:3],8,,1,{4}1,
{8}5b/8,5-2[8:1],8h[8:3],5,,3,{4}1/3,
{8}2b,2-5[8:1],1,2,{24},,,8,7,6,{4}5<3[2:1],
4h[16:9],{16},,,,,,,,2,4,2,4,
{8}1b,1-6[8:1],4h[8:3],1,,8,{4}8,
{8}4b/1,4-7[8:1],1h[8:3],4,,6,{4}8/6,
{8}7b,7-4[8:1],8,7,{24},,,1,2,3,{4}4h[4:1],
{16}7,5,6,2,{4}4,{16}7bV53[16:3],8b,{8}7b,{4}7>5[1:3],
{1}1h[8:11],
{4},,,8,
{8}8,,,7,,,{4}6,
,3,4,{8}5/7,{16}7,6,
5b/1-6[8:1],,,4b-8[8:1],,,,2b,,2b-5[8:1],,,{4}8b,
{8}7b/4b,7b/4b,{16}4b/7b-4[8:1],,,2b,,2b,,,,1/5,2/6,3/7,
{4}4b/8b-4[8:1],{16}3b,2b-5[8:1],{8}1b,{16},7b-4[8:1],,,{4}3b,
{8}5b/2b,5b/2b,{16}5b/2b,,,3,4,2,5,1,6,8,{8}7,
{4}8w4[8:1],8b,{8},5/3,{4}5/3h[8:3],
{8},8,{4}8h[4:1],{8}2,3,4,5,
{4}6-8[8:1],{8}1,2-4[8:1],,5,{4}5h[2:1],
,6>3[8:1],6,{8}7,{16}7,6,
{4}5-1[8:1],{16}2b-6[8:1],,,8b,,8b,,,{8}7b/4b,7b/4b,
{16}6h[16:1],5,,2h[16:1],4b-8[8:1],,,1b,,1h[16:3],{48},,,,,,{24}7b-3[8:1],6/2,5/3,4,,,{4}1b,
{32}1b,2,{16}3h[8:1],{32},,7b,6,{8}5h[8:1],{32}2b,3,{16}4h[8:1],{32},,8b,7,{8}6h[8:1],
{32}3b,4,{16}5h[8:1],{32},,1b,8,{8}7h[8:1],{32}4b,5,{16}6z2[16:5],,,,,,,,,{1}8h[1:1]
||这是一个标记~
,
{2},,2h[8:1],
3h[8:1],
4h[8:1],5h[8:1],
{8}6h[8:1],5,,,{4}7h[8:1],8,
{8}8h[8:1],7,,,1h[8:1],,,7,
{2}7/2h[8:1],{8}5/3h[8:1],5,,,{2}6b/4h[2:1],
{4}8w4[8:1],8,
2,{8}2/4,4,2/5,5,6/2,6,
{4}2/7-3[8:1],{8}1,1,{4}1-5[8:1],5-2[8:1],
6,{8}8,8,{4}8-3[8:1],3-7[8:1],
4,{12}5,6,4,5,3,4,2-4[8:1],,,{4}6/2,
{8}6,5,{4}6/5-8[8:1],6,
6/7-3[8:1],6,{2}6-4[8:1]/2-8[8:1],
{4}5/1b,{8}1,4,{4}1/4-7[8:1],1-5[8:1],
1b,{8}6,6,7/5,7/5,{16}4,8,3,1,
{1}2z6[8:3]*v5[8:3],
{16}8b-4[8:1],,,2b-5[8:1],,,{8}7b,7,6,5,4,
{16}3b
||这是一个标记~
,,,6,{8}4,5,6<8[8:1],{16},,,,2,3,
4,,,7,{8}5,6,7>1[8:1],,,5,
{4}4h[2:1],{8}7,6,{16}5,,,3,{8}4q5[2:1],5,
{4}6h[2:1],{8},,,,4,5,
{16}6,,,3,{8}5,4,3>1[8:1],{16},,,,7,6,
5,,,2,{8}4,3,{16}2<8[8:1],,,4,,,{8}5,
{16}5h[16:3],,,2,,,{8}3/5,{4}4<6[8:1],4,
3h[4:1],{8}4,4,2,3,4,5,
{16}6,,,3,{8}4>2[8:1],5,6h[4:1],{16},,,,2,3,
4,,,2,{8}4>2[8:1],5,6h[4:1],,,3,
{4}5h[2:1],{8}2,3,{16}4,,,6,{8}5p4[2:1],4,
3h[16:3],,,2,{4}2,{8}5,4,
{16}3,,,6,{8}5<7[8:1],4,{2}3h[4:1],
{4}6h[2:1],{8}5,4,3h[8:3],,,6,
{16}6h[16:3],,,5,,,{8}6/4,{4}5>3[8:1],5,
6h[4:1],{8}5,5,{16}5,6,5,6,5-3[8:1],7,5,7,
5b,,,8,{8}8>3[8:1],3<6[8:1],8,{16},,,,8,7,
8,,,1,{8}1<6[8:1],6>3[8:1],1,{16},,,,1,2,
{8}1,{16}3>1[8:1],4,,4,{8}3,6,{16}7<5[8:1],8,,8,{8}7,
{2}1-3[8:1],{16}4,3,4,3,4-6[8:1],2,4,2,
4b,,,1,{8}1<6[8:1],6>3[8:1],1,{16},,,,1,2,
1,,,2,{8}4,5/3,6/4,{16}6<8[8:1],5,,5,{8}6,
3,{16}2>4[8:1],1,,1,{8}2,{4}8-4[8:1],8,
{2}3h[4:1]/5h[4:1],{16}3,4,2,5,1>7[8:5],6,8,7,
{8}1b,,,,,8,{16},,7,6,
{8}5<1[8:3],,,,,2,{16},,3,4,
{2}5>2[4:1],{16}8,,,7,,,{8}6,
{32}5b/3h[32:3],,,,,4b/6h[32:3],,,,,{16}5b/2h[32:3],{32},,,4b/7h[32:3],,,,,{8}5b/1h[32:3],{32},8h[32:3]/4bw8[32:3],,,,,,,{4}4b,
{8}6/2,{16}1,4,{8}8-4[8:1],2-5[8:1],8,2,
7,6/1,2/5,{16}4,3,{8}4-7[8:1],1-5[8:1],4,1,
8b,{16}7,2,6,3,5,4,1b,2,8,3,7,4,6,5,
7b,8,6,1,5b,2,4,3,8b,1,7b,2,6b,3,5b,4,
{1}1b,
E
