&title=幻想即興曲
&artist=穴山大輔
&first=0
&des=杯盖
&des_5=
&lv_5=13+
&inote_5=(160){23},,{4},,,,{1}8w4[2:3],
{12},,,,,,,,,,,,(110)2,
4,3,(125)6,4,5,(140)2,4,3,7,5,6,
(150)2,4,3,6,5,7,(160){16}1,2,3,4,1,8,7,6,
{8}1,2/4,{16}6,5,7,4,{8}8h[8:1],2,1h[8:1],7,
8,7/5,{16}3,4,2,5,{8}1h[8:1],7,8h[8:1],2,
{16}3,4,3,4,2,5,2,5,1,2,3,4,1,8,7,6,
2,4,3,4,{8}2,1,{16}7,5,6,5,{8}7,8/1,
1,2/4,{16}6,5,7,4,{8}8h[4:1],3,1h[4:1],6,
8,7/5,{16}3,4,2,5,{8}1h[4:1],6,8h[4:1],3,
{16}1,4,2,4,1,5,3,5,1,2,3,4,1,8,7,6,
{8}3h[16:1],4h[16:1]/2h[16:1],6h[16:1],5h[16:1]/7h[16:1],1h[16:1],2h[16:1]/8h[16:1],{4}7h[16:1]/3h[16:1],
4/5V73[4:1],{8}3/5,1V35[4:1],,5-1[8:1],6,7,
{4}8-3[8:1],{8}8/7,5-2V84[8:3],,5/7,6,5,
{16}6h[8:1],,,7h[8:1]/3h[8:1],,,{8}5h[4:1]/1s5[4:1],,,6,8,
{4}8/4V26[4:1],{8}6/4,8V64[4:1],,4-8[8:1],3,2,
{4}1-6[8:1],{8}1/2,4-7V15[8:3],,4/2,3,4,
{16}3h[8:1],,,2h[8:1]/6h[8:1],,,{8}8/4h[4:1],{16}8,7,6,5,8,1,2,3,
5,6,7,8,5,4,3,2,7,8,6,1,5,2,4,3,
6,5,7,4,8,3,1,2,8,8,,4,{8}4,{16}6,6,
,2,{8}2,{16}7,8/6,,2,{8}3/1,{16}6,5/7,,3,{8}4/2,
1,4/3,{16}6,5,7-4[8:1],4,{8}8,7/2-5[8:1],1,7/2,
8,6/5,{16}3,4,2-5[8:1],5,{8}1,2/7-4[8:1],8,2/7,
{16}3,5,3,5,2,4,2,4,{8}1h[8:3],{24}2,3,4,5,6,7,8,,,{8}2/1,
{16}3,4,2,4,1,1,6,5,7,5,8,8,{8}3,
1,3/4,{16}6,5,7-1[8:1],5,{8}6,7/2-6[8:1],3,2/7,
8,{16}7,5,7,4,{8}7,1/8,{16}2,4,2,5,{8}2,
{16}8/1,7,6,5,8,1,2,3,4/1,8,7,6,1,2,3,4,
{24}6,5,6,5,,,{8}7/4,8,{24}3,4,3,4,,,{8}2/5,1,
{16}7,8,6,1,7,8,6,1,5,2,6,4,8,2,5,3,
1,2,8,3,1,2,8,3,7,4,8,2,6,4,5,3,
{3}8b,{12}E7,E6,E5,E4,E3,{96}A1,,,D2,,,{32}A2,D3,A3,D4,A4,D5,
A5,D6,A6,D7,A7,D8,A8,D1,A1,D2,A2,D3,A3,D4,A4,D5,A5,D6,A6,D7,A7,D8,A8,D1,A1,D2,A2,D3,{8}A3/Cf,
{16},,6,5,{8}7h[8:1],{16}1,8,{8}2h[8:1],{16}4,4,{8}5/3,{16}3,4,
{8}2h[8:1],{16}8,1,{8}7h[8:1],{16}5,5,{8}4/6,{16}3,4,{8}2h[8:1],8b-2-7-3-6-4-8[16:31],
{1},{4},,,{16},8xw4[16:7],
,,,,,,,,,,,,,,(320){4},
(100)E7,E5,E3,E1,
E8,E6,E4,E2,
{16},7/5,{48},,,,,,,,,,,,,,,,,,{24}4,5,{12}3h[8:1],{24},4h[8:1],,,5h[8:1],,,6h[8:1],
,,{12}8>3[8:1],,,,,,1<6[8:1],,,,,,4/3,
,,4/5,,,5/6,{192},,,,,,,{64}4,,5,,4,,5,{192},,,,{24}3,,,4/3,
,,{12}2q5[4:1],,,,,,8h[2:1],,,,,,2h[2:1],
{48},,,,,,,,,,,,,,,,6,5,{24}4h[6:1],,,,1h[8:1],,,5h[8:1],,,3h[8:1],
,,{12}7,5,4,3/6,5,3,2/5,4,2,{6}4/1>6[24:7],
{12},,,,,7h[12:1],{24},8h[12:1],,{8}6h[12:5],{24},,,,,,,5,
,,{6}5w1[12:13],{12},,,,,,,,,,,,,,,,,(160){4},
{8}1,3/4,{16}6,5,7-3[8:1],5,{8}8,7/1-5[8:1],8,1/7,
8,6/5,{16}3,4,2-6[8:1],4,{8}1,2/8-4[8:1],1,8/2,
{12}1h[12:1],3h[24:1],2h[12:1],8h[12:1],6h[24:1],7h[12:1],1h[12:1],3h[24:1],2h[12:1],8h[12:1],6h[24:1],7h[12:1],
2,2,2,1,1,1,8,8,8,7,7,7,
{8}1,3/4,{16}6,5,7<4[8:1],5,{8}8,7/1>4[8:1],8,1/7,
8,6/5,{16}3,4,2>5[8:1],4,{8}1,2/8<5[8:1],1,8/2,
{16}3,4,3,4,2,5,2,5,{12}1,1,1,7,7,7,
{32}3,,,5,6,7,{16}8,{32}2,,,4,5,6,{16}7,1,5,1,6,2,7,3,8,
4-8[16:1],,,4/1pp6[16:5],,,{8}6,,7,7,8,
{16}5-1[16:1],,,5/8qq3[16:5],,,{8}2,,2,1,8,
{16}5-7[16:1],,,5-3[16:1],,,{8}5-1[8:1],{16},5,,,,,,,8-4[16:1],
,,8/5pp2[16:5],,,{8}2,,3,3,4,
{16}1-5[16:1],,,1/4qq7[16:5],,,{8}6,,6,5,4,
{16}4-2[16:1],,,4-6[16:1],,,{8}4-8-4[8:7],{2}1h[2:1],
{24},,,,,,,,,,,,1,2,3,5,6,7,2,3,4,6,7,8,
{16}1,1,,4/2,{8}4/2,{16}5/7,7/5,,8/1,{8}8/1,6/5,4/3,
{16}2/1,2/1,,8/7,{8}8/7,{16}6/2,2/6,,7-5[8:1]/3-5[8:1],{8}7h[16:1]/3h[16:1],,,1,
4/3,{16}6,5,6v1[8:1],7,{8}6,6/2v5[8:1],3,2/7,
8,6/5,{16}3,4,3v8[8:1],2,{8}3,3/7v4[8:1],6,7/2,
{16}1h[16:1],5h[16:1],1h[16:1],5h[16:1],2h[16:1],6h[16:1],2h[16:1],6h[16:1],3h[16:1],7h[16:1],3h[16:1],7h[16:1],4h[16:1],8h[16:1],4h[16:1],8h[16:1],
5h,4h,3h,2h,5h,6h,7h,8h,1h[16:1],5h[16:1],3h[16:1],7h[16:1],2h[16:1],6h[16:1],4h[16:1],8h[16:1],
{8}1,3/4,{16}6,5,6-1[8:1],7,{8}6,6/2v5[8:1],3,2/7,
8,{16}7,6,7,8,{8}7,1/8,{16}2,3,2,1,{8}2,
{16}8/1,7,6,5,8,1,2,3,4/1,8,7,6,1,2,3,4,
{24}6,5,6,5,6,5,{8}7,2,{24}3,4,3,4,3,4,{8}2,7,
{16}2,1,3,8,2,1,3,8,4,7,3,5,1,7,4,6,
8,7,1,6,8,7,1,6,{24}2,3,4,6/5,7,8,3/1,4,5,6,7,8,
{3}5b/1,{12}E3,E4,E5,E6,E7,{96}A8,,,D8,,,{32}A7,D7,A6,D6,A5,D5,
A4,D4,A3,D3,A2,D2,A1,D1,A8,D8,A7,D7,A6,D6,A5,D5,A4,D4,A3,D3,A2,D2,A1,D1,A8,D8,A7,D7,{8}A6/Cf,
{32},{16},,7,8,{8}6-2[8:1],{16}7,5,{8}6,{16}4,4,{8}5/3,{16}2,1,
{8}3-7[8:1],{16}2,4,{8}3,{16}5,5,{8}4/6,{16}1,2,3/7,6,5/2,3,
4/8,7,{24}6/1,2,3,4/8,7,6,{96}5/1,,,2,,,{32}3,4,5,6,7,8,1,5b/2h[32:26],{4},{16},,,{96},{6}6h[3:1],
,,{3}3b/7b,
{48},,,,,,,,,{16}5bw1[16:13],{1},{4},(145){16}6,
5,{8}6,{16}3,4,{8}3,
{16}6,5,{8}6,{16}3,4,{8}3,{16}6,5,{8}6,{16}3,4,{8}3,
{16}6,5,{8}6,{16}3,4,{8}3,{16}6,6,{8}5,{16}3,3,{8}4,
{16}6,6,{8}5,{16}3,3,{8}4,6,5,4,3,
6,5,4,3,E7,B5,B4,E3,
(130)A6,A5,A4,A3,D7,B6,B2,D3,
(120)E7,B8,B4,E3,(100)B6,B8,B4,B2,
E
