&title=パラレルラルラ
&artist=夏代孝明(TVアニメ「ハナビちゃんは遅れがち」ED)
&first=0
&des=AsukaHana
&lv_5=14
&inote_5=(190)
{1},
{8}3h[8:5],,,,,4>7[8:3]*>7[8:3],5,6,,5<2[8:3],5,,4,,3h[4:1],,
1,8>5[8:3]*>5[8:3],7,6,,6>1[8:3],7,8,,8>6[8:3]*>6[8:3],7,6,,,,,
{2}5>6[2:1],6>7[2:1]*>7[2:1],7<8[2:1],8<1[2:1]*<1[2:1],
{8}1>6[8:3],,,6>8[8:3]*>8[8:3],,8,8>6[8:3],7,,6>8[8:3]*>8[8:3],6,7,,5,5w1[8:1],,,
{8},,12,1^4[8:1]/2,,6^1[8:1],,1,2,3,4,{16}6,5,6,,{8}4>1[8:1]/7,,
6,6,,87,8^5[8:1]/7,,3^8[8:1],,8,7,6,5,{16}3,4,3,,{8}5/2-5[8:1],,
8,8,,46,4-2[8:1]/6,,5-1[8:1],,1,2,3,4,{16}6,5,6,,{8}4/7-4[8:1],,
2,2qq1[4:1]*qq1[4:1],,1-4[8:1]*-4[8:1],,,,,
{16}5,4,5,4,5,,3,6,3,6,3,,5,4,5,4,5,,
{8}4,4>6[8:3],,8<2[8:3]*<2[8:3],,4>8[8:2],,,7,7,6,6,5^8[8:1],4,3,,2,2h[8:3],,1v3[8:1]*V75[4:1],1,,,
2,2,4-6[8:1],3h[8:3],,,7,7,5-8[8:1],6h[8:3],,,1^3[8:1],,4,,1^7[8:1],,6,,1>4[8:1],,5,,1<6[8:1],,5,,1>5[8:1],,6,,
{16}7b,6,7h[8:1],5h[8:1],,,6b,5,6h[8:1],4h[8:1],,,
5b,4,5h[8:1],3h[8:1],,,4b,3,5,3,5,3,5^3[8:1],,2,,1,,,,
2b,3,2h[8:1],4h[8:1],,,3b,4,3h[8:1],5h[8:1],,,
4b,5,4h[8:1],6h[8:1],,,5b,6,4,6,4,6,4^6[8:1],,7,,8,,,,
7b,6,7h[8:1],5h[8:1],,,6b,5,6h[8:1],4h[8:1],,,
5b,4,5h[8:1],3h[8:1],,,4b,3,4,3,5,4,5,4,6,5,6,5,6h[8:1],,
3,,4,,5,,6,,3,,4,,5,,6,,4w8[8:1],,,,,,,,,,
{8},8b/1b,,7/2-5[8:1],81,72,7h[4:1],3^8[8:1],2,7V51[4:1],6,,8,8^5[8:1]*^3[8:1],,8-4[8:1],,84,,
2b-5[8:1]/1b,,2b/1b,,6>1[16:5]/3,{16}5,4,6,,{8}2h[4:1],,{16}8,7,6,5,4,3,2,1,8,7,
{8}2b/6b,,{16}65,,3,4,3,,21,,87,,6,5,6,,{8}43,2^5[8:1],1v6[8:1],,,3-8[8:1],4-7[8:1],,,
,2^5[8:1],1,8,7-3[8:1],8,1,2b<4[8:3],,5,4p7[16:4],3,2,1,8-2[8:1],,
8b-6[8:1],,8b-4[8:1],,8b,7,6-1[8:1],5,4,3-8[8:1],8V25[4:1],,7-4[8:1],,7-2[8:1],,7b-4[8:1],,7b/8b,,25,{16}3,4,3h[4:1],,7h[16:6],,,,1,2,3,4,5,6,7,8,1,2,
{8}7b/3b,,{16}34,,6,5,6,,78,,12,,3,4,3,,{8}56,7^4[8:1],8v3[8:1],,,6-1[8:1],5-2[8:1],,,
,7^4[8:1],8,1,2-6[8:1],1,8,7b>5[8:3],,4,5q2[16:4],6,7,8,1p4[8:1]*q6[8:1],,
{16},,,,5,,5,,7h[4:1],,6>2[16:3],5,4,,7,,8,,7,6,5h[8:3],,8,1,2,3,4h[4:1],,5,,5,,
{8}36,3^6[8:1]/6,,3-7[8:1]/6-1[8:1],,,,,
{16}7,2,7,2,7,,3,6,3,6,3,,5,4,5,4,5,,
{8}4,4<2[8:3]*<2[8:3],,8>4[4:1],,5h[8:3],,,3,3-7[8:1],,5^8[8:1],,2,2h[8:3],,1,1-5[8:1],,6,,7,,
{1}8h[4:5],
{8}6^3[8:1],,,,8,7,6,5,4-1[8:1],,8-5[8:1],,3-8[8:1],,7-4[8:1],,2-7[8:1],,6^1[8:1],,2>5[8:1],,,,
{16}8b,6,7h[8:1],5h[8:1],,,7b,5,6h[8:1],4h[8:1],,,6b,4,5h[8:1],3h[8:1],,,
5b,3,4h[8:1],2h[8:1],,,4b,2,4,2,5,3,5,3,6h[8:1],,5h[8:1],,4h[8:1],,3h[8:1],,6h[8:1],,5h[8:1],,4h[8:1],,3h[8:1],,5w1[8:1],,,,,,,,,,
{8},1b/8b,,1^4[8:1],2,7-3[8:1],6,2,2-6[8:1],1,26,5,{16}5,4,5>2[8:1],,{8}6,7,8,8-3[8:1],,
7b-4[8:1]/8b,,7b/8b,,36,{16}4>1[8:1],5,4,,{8}5h[8:3],,{16}7,8,1,26,37,48,51,6,7,8,
{8}1b/5b,,{16}34,,6,5,6,5,7,,12,,3,4,3,4,{8}2,7^4[8:1],8v3[8:1],7,8,6-1[8:1],5-2[8:1],6,5,
,8,8^5[8:1],7,2,2V47[4:1],1,7bV14[16:4]*V14[16:4],,4V62[16:4],5,6,7,8,1w5[8:1],,
1b,,8bw4[8:1],,8b,,2-4[8:1],5,2-6[8:1],6V41[4:1],2,7,7,6,8-3[8:1],1,7b-4[8:1],,7b/8b,,25,{16}4,3,5h[4:1],,7>4[16:5],,,,3,4,5,6,7,8,1,2,3,4,
{8}1b/5b,,{16}65,,3,4,3,4,2,,87,,6,5,6,5,{8}7,2^5[8:1],1v6[8:1],2,1,3-8[8:1],4-7[8:1],3,4,
,1,1^4[8:1],2,7,7V52[4:1],8,2bV85[16:4]*V85[16:4],,5V37[16:4],4,3,2,1,8-3[8:1]*-5[8:1],,,,
{8}4,4,6h[4:1],{16}5q7[8:3],4,3,,1,,1,,2,3,4h[8:3],,1,8,7,6,5h[4:1],,4w8[8:1],,4,,,,,,,,
17,,17,,3^8[8:1],5,2,,6,,7,,1,8,1,,3,4,3,4,3,,1b/2b-4[8:1]*-6[8:1],,,,,,,,
{8}5,5,3h[4:1],{16}4p2[8:3],5,6,,8,,8,,7,6,5h[8:3],,8,1,2,3,4h[4:1],,5<8[8:1],,5,,3b,,3b-7[8:1],,,,1bv4[8:1]*v6[8:1],,,,
{8},,,3>8[8:3]/4,,,,4,,,,
{9999}3>7[2:1]*>7[2:1]/4,3!>8[8:3],
{8},,,,4,,,,
{9999}3>6[8:5]/4,3!>7[2:1]*>7[2:1],3!>8[8:3],
{8},,,,4,,,,
{9999}4<2[8:6]*<2[8:6],4!<1[8:5],4!<8[8:4]*<8[8:4],4!<7[8:3],
{8},,,,,,,,
4h[8:5],,,,,1,1,4>7[8:4],,,,,6<3[8:4],,5,,4,5,6,7,,4,3,2,,5,6,7,,45,45,,
{9999}4<4[8:8]*<4[8:8]/5,4!<3[8:7],4!<2[8:6]*<1[8:5],4!<8[8:4],4!<7[8:3]*<7[8:3],4!<6[8:2],,,,,,,{1},,,,,,,
