&title=可愛くてごめん
&artist=HoneyWorks feat. ちゅーたん
&first=0
&des=FFFFLaN
&lv_5=12+
&des_5=FFFFLaN
&inote_5=
(160){1},{4},{8},,,,,,1x/2h[8:3],
,,8,8x/7h[4:1],,,4,
{4}3x/5x,6x/5x,1x/8x,5,
{8}4x/6x,,,6,5x/4x,3,5x-2[8:1]/4x-2[8:1],6,
{4}4x-7[8:1]/5x-7[8:1],5xw1[4:1],,,6xh[4:1],
5,3xh[4:1],4x,
7xh[4:1],5xh[4:1],4xh[4:1],2xh[4:3],
7xh[2:1],,,1x-5[8:1]/8x-4[8:1],
1>4[8:1]/8<5[8:1],1pp4[8:3]/8qq5[8:3],{2}C,
{4}6xh[2:1],{8}7,8,1,2,,3,
{4}3h[8:5],{8}1,8,7,6,,5,
2/4,3,7/5,6,5/4,3-7[8:1],,5,
{4}5-8[8:1],1-4[8:1]*>4[8:1],1x-6[8:1]*<6[8:1],1x,
{8}5/4-2[8:1],3,4/5-7[8:1],6,5/4,3-7[8:1],,8,
{4}8<5[8:1],{8}8/1>4[8:1],2,1/8,7-4[8:1],,1>4[8:1],
1,8-4[8:1],8,1-5[8:1],1,7-3[8:1],{4}7,
{16}2,1,{8}2,3/4,4/5,{2}5-2[8:1]/6-1[8:1],
{4}7x<4[8:1],{8}4,3>8[8:1],,4,5,6,
{4}7<4[8:1],{8}1,3>8[8:1],,4,5,6,
{4}6x<1[8:1],{8}1,2>5[8:1],,1,8,7,
{4}6<1[8:1],{8}4,2>5[8:1],,1,8-3[8:1],7,
{4}6x,{8}5,4,{4}3x-8[8:1],5x<8[8:1],
4x>1[8:1],4xw8[8:1],,5-8-5[8:7],
4h[2:1],{8},,,,4q7[4:3],4,
3,3,2,2,,,1q4[4:3],1,
8,7,6,5,,,5q8[4:3],5,
4,3,2,1,,,1>5[4:1],1,
{4}5<1[4:1],1>5[4:1],5<1[4:1],1>8[8:3],
{32}Cf,,,,,,,,,,,,,1x,2x,3x,{4}4x,1>4[8:1]/8<5[8:1],
1b/8b,{8}4/5-7[8:1],6,5/4-2[8:1],3,4/5-8[8:1]*<8[8:1],6,
{4}5>2[8:1]*-2[8:1],5w1[8:1],,3/7,
6/5>1[8:1],8,3/4<8[8:1],1-4[8:1]*>4[8:1],
1-6[8:1]*<6[8:1],1w5[8:1],,3-8[8:1]/7-4[8:1],
3b/7b,{8}8/1-5[8:1],2,1/8-4[8:1],7,1-6[8:1]*<6[8:1],2,
{4}1-4[8:1]*>4[8:1],1w5[8:1],,7-4[8:1]/3-8[8:1],
3/7,2-5[8:1]/6-1[8:1],2/6,1/8-5[8:1]*<5[8:1],
8-3[8:1]*>3[8:1],8w4[8:1],,2-5[8:1]/6-1[8:1],
2b/6b,{8}8-4[8:1],7,8/1-5[8:1],2,1/8<5[8:1],7,
{4}1/8>3[8:1],7/8-4[8:1],3-8[8:1],5-8[8:1],
{8}4,,,5,{4}6-1[8:1],{8}5,4,
{4}3/1>4[8:1],8/1<6[8:1],1/2,3-8[8:1]/7-4[8:1],
3b/7b,{8}5/4-8[8:1],3,4/5-1[8:1],6,4/5<8[8:1],3,
{4}4/5>2[8:1],6/5-1[8:1],4,8<5[8:1],
{8}1,,,3,4/5<8[8:1],6,5/4>1[8:1],3,
{4}5/4<7[8:1],3/4-8[8:1],{24},,,,,,7x/1x,6x/2x,{6}3x/5x,
{1}2h[4:3]/6h[4:3],
{4}5pp5[4:1]*qq5[4:1],,,1-5[8:1],
E
